Рiздвяний янгол / Christmas Angel (2009) Ukr/Eng | Sub Ukr

Нові коментарі

Нова тема   Відповісти
Автор Повідомлення
Anaive 
Поважний учасник


З нами з: 07.06.11
Востаннє: 29.02.20
Повідомлень: 158

2019-12-22 20:04  
Рiздвяний янгол / Christmas Angel (2009) Ukr/Eng | Sub Ukr

Рiздвяний янгол / Christmas Angel (2009) Ukr/Eng | Sub Ukr


Жанр: драма, мелодрама, комедія
Країна: США



Кінокомпанія / телеканал: Artist View Entertainment, SunWorld Pictures, Silver Peak Productions
Режисер: Браян Бру
Актори: К.С. Клайд, Кері Гоукер, Брюс Девісон, Морін Іствуд та ін.

Сюжет:
Ешлі живе одна. Наближається Різдво, і Ешлі почувається самотньою. В неї з'являються проблеми з роботою. Несподівано допомога приходить від її сусіда Ніка: він пропонує їй попрацювати у благодійній організації...


Тривалість: 01:26:22

Якість:
Відео:
кодек:
розмір кадру: 624x352
бітрейт: 988 кб/с
контейнер: avi

Аудіо # 1:
мова: українська
переклад: двоголосий закадровий
кодек: 2.0
бітрейт: 256 кб/с

Аудіо # 2:
мова: англійська
переклад: оригінал
кодек: mp3
бітрейт: 128 кб/с

Субтитри:
мова: українська
тип: програмні (м'які)
формат: srt

Джерело перекладу: Khatak
Джерело озвучення: Artymko & Енейв
Info

General
Complete name : D:\Video\Christmas Angel 2009\Christmas Angel (2009).avi
Format : AVI
Format/Info : Audio Video Interleave
File size : 861 MiB
Duration : 1 h 26 min
Overall bit rate mode : Variable
Overall bit rate : 1 394 kb/s
Writing application : VirtualDubModUkr 1.5.10.2 (build 2542/release)
Writing library : VirtualDubMod build 2542/release

Video
ID : 0
Format : MPEG-4 Visual
Format profile : Advanced [email protected]
Format settings : BVOP2
Format settings, BVOP : 2
Format settings, QPel : No
Format settings, GMC : No warppoints
Format settings, Matrix : Default (H.263)
Codec ID :
Codec ID/Hint :
Duration : 1 h 26 min
Bit rate : 988 kb/s
Width : 624 pixels
Height : 352 pixels
Display aspect ratio : 16:9
Frame rate : 25.000 FPS
Color space : YUV
Chroma subsampling : 4:2:0
Bit depth : 8 bits
Scan type : Progressive
Compression mode : Lossy
Bits/(Pixel*Frame) : 0.180
Stream size : 610 MiB (71%)
Writing library : 1.2.1 (UTC 2008-12-04)

Audio #1
ID : 1
Format : AC-3
Format/Info : Audio Coding 3
Commercial name : Dolby Digital
Codec ID : 2000
Duration : 1 h 26 min
Bit rate mode : Constant
Bit rate : 256 kb/s
Channel(s) : 2 channels
Channel layout : L R
Sampling rate : 48.0 kHz
Frame rate : 31.250 FPS (1536 SPF)
Compression mode : Lossy
Stream size : 158 MiB (18%)
Alignment : Split across interleaves
Interleave, duration : 40 ms (1.00 video frame)
Interleave, preload duratio : 500 ms
Service kind : Complete Main

Audio #2
ID : 2
Format : MPEG Audio
Format version : Version 1
Format profile : Layer 3
Format settings : Joint stereo / MS Stereo
Codec ID : 55
Codec ID/Hint : MP3
Duration : 1 h 26 min
Bit rate mode : Variable
Bit rate : 128 kb/s
Channel(s) : 2 channels
Sampling rate : 48.0 kHz
Frame rate : 41.667 FPS (1152 SPF)
Compression mode : Lossy
Stream size : 81.8 MiB (9%)
Alignment : Aligned on interleaves
Interleave, duration : 24 ms (0.60 video frame)
Interleave, preload duratio : 142 ms
Writing library : LAME3.90.
Encoding settings : -m j -V 4 -q 2 -lowpass 17.6 --abr 128
Скріншоти


Реліз на замовлення NemoInFire


Авторський реліз (завантажувати можна без реєстрації)
 Трекер:    Зареєстрований   

Завантажити / скачати фільм українською



відео для новачків



 Зареєстрований:   2020-01-23 23:32
 Розмір:   861 MB 
 Оцінка фільму:   9.7/10 (Голосів: 7)
   
bot 
робот


З нами з: 30.09.07
Востаннє: 26.05.05
Повідомлень: 23423

2019-12-22 20:04  
Тему перенесено з Фільми до форуму Анонси релізів


Anaive

MutuLI 
Відео Гуртом - фільмокрай
Відео Гуртом - фільмокрай


З нами з: 08.03.09
Востаннє: 29.02.20
Повідомлень: 1730

2019-12-22 20:56  
на рутрекері пише, що англійська доріжка не співпадає з відео?
Anaive 
Поважний учасник


З нами з: 07.06.11
Востаннє: 29.02.20
Повідомлень: 158

2019-12-22 21:15  
MutuLI
Це не з рутрекеру.
Це з піратської бухти, а саби оригінальні з амазону.

bot 
робот


З нами з: 30.09.07
Востаннє: 26.05.05
Повідомлень: 23423

2020-01-19 20:27  
Тему перенесено з Анонси релізів до форуму Художні фільми


Anaive

bot 
робот


З нами з: 30.09.07
Востаннє: 26.05.05
Повідомлень: 23423

2020-01-19 20:29  
Тему перенесено з Художні фільми до форуму Фільми


Anaive

Anaive 
Поважний учасник


З нами з: 07.06.11
Востаннє: 29.02.20
Повідомлень: 158

2020-01-20 23:45  
Шановні глядачі, пропустив/відрізав, не знаю як то сталося, 2 фрази Ніка Андерсона. Завтра обновлю торент. Вже виправив. Але краще ще раз послухаю.
Anaive 
Поважний учасник


З нами з: 07.06.11
Востаннє: 29.02.20
Повідомлень: 158

2020-01-23 23:33  
Оновив торент.
Даруйте за незручності.

Ваш часовий пояс: GMT + 2 Години

Нова тема   Відповісти