Джокер / Joker (2019) UHD Remux 4K 2160p HDR H.265 Ukr/Eng | Sub Eng

Нові коментарі

Нова тема   Відповісти
Автор Повідомлення
Anonymous 







2019-12-22 19:43  
Джокер / Joker (2019) UHD Remux 4K 2160p HDR H.265 Ukr/Eng | Sub Eng


Альтернативні постери





«Ми живемо у суспільстві»



«Зроби щасливе обличчя»



Жанр: драма, кримінальний, трилер
Країна: США, Канада



Кінокомпанія: BRON Studios, Creative Wealth Media Finance, DC Comics
Режисер: Тодд Філліпс
Актори: Хоакін Фенікс, Зазі Бітц, Роберт Де Ніро, Марк Мерон, Френсіс Конрой, Ші Вігхем, Бретт Каллен, Дуглас Ходж

Сюжет:
Відчуваючи самотність, Артур Флек шукає моральну підтримку. Проте, гуляючи покинутими вулицями Ґотему та пересуваючись у розмальованому графіті громадському транспорті ворожого міста, Артур носить дві маски. Першу він використовує для повсякденної роботи клоуном. Іншої ж просто не може позбутись. Це подоба особистості, яку він проектує в марній спробі відчути себе частиною навколишнього світу, а не самотньою людиною, яку весь час шматує життя. У Артура немає батька – лише слабка матір. Вона є для нього одночасно й найкращою подругою. Мати дала йому прізвисько Щасливчик. Це прізвисько викликає в Артура посмішку, яка приховує сильний душевний біль. Проте коли на вулицях знущаються підлітки, в метро насміхаються над костюмом клоуна, а колеги злісно дражнять, Артуру не залишається іншого вибору, крім як ще більше відмежувати себе від суспільства.


Тривалість: 02:01:49
Якість: UHD Remux 4K 2160p

Відео:
кодек: H.265 (HEVC)
розмір кадру: 3840x2160
бітрейт: 50200 кб/с
бітова глибина: 10 біт
кольоровий простір: BT.2020 (HDR)

Аудіо # 1:
мова: українська
переклад: професійний дубльований | студія Postmodern
кодек: 5.1
бітрейт: 384 кб/с

Аудіо # 2:
мова: англійська
переклад: оригінал
кодек: , 5.1
бітрейт: 640 кб/с

Аудіо # 3:
мова: англійська
переклад: оригінал
кодек: TrueHD + Atmos 7.1
бітрейт: 3819 кб/с

Джерело озвучення:


Субтитри: (Forced)
мова: українська
тип: програмні (м'які)
формат: *.srt

Субтитри: (Full, SDH)
мова: англійська
тип: програмні (м'які)
формат: *.srt
Info
Код:
General
Complete name                            : Joker (2019) UHD Remux 4K 2160p HDR H.265 (HEVC) [UKR_ENG] [ViDeO_Hurtom].
Format                                   :
Format version                           : Version 4
File size                                : 46.9 GiB
Duration                                 : 2 h 1 min
Overall bit rate mode                    : Variable
Overall bit rate                         : 55.1 Mb/s
Encoded date                             : UTC 2019-12-29 18:02:04
Writing application                      : v30.1.0 ('Forever And More') 64-bit
Writing library                          : libebml v1.3.6 + v1.4.9
Cover                                    : Yes
Attachments                              : cover.jpg

Video
ID                                       : 1
Format                                   : HEVC
Format/Info                              : High Efficiency Video Coding
Commercial name                          : HDR10
Format profile                           : Main [email protected]@High
Codec ID                                 : V_MPEGH/ISO/HEVC
Duration                                 : 2 h 1 min
Bit rate                                 : 50.2 Mb/s
Width                                    : 3 840 pixels
Height                                   : 2 160 pixels
Display aspect ratio                     : 16:9
Frame rate mode                          : Constant
Frame rate                               : 23.976 (24000/1001) FPS
Color space                              : YUV
Chroma subsampling                       : 4:2:0 (Type 2)
Bit depth                                : 10 bits
Bits/(Pixel*Frame)                       : 0.252
Stream size                              : 42.7 GiB (91%)
Language                                 : English
Default                                  : Yes
Forced                                   : No
Color range                              : Limited
Color primaries                          : BT.2020
Transfer characteristics                 : PQ
Matrix coefficients                      : BT.2020 non-constant
Mastering display color primaries        : Display P3
Mastering display luminance              : min: 0.0050 cd/m2, max: 4000 cd/m2
Maximum Content Light Level              : 992 cd/m2
Maximum Frame-Average Light Level        : 120 cd/m2

Audio #1
ID                                       : 2
Format                                   : AC-3
Format/Info                              : Audio Coding 3
Commercial name                          : Dolby Digital
Codec ID                                 : A_AC3
Duration                                 : 2 h 1 min
Bit rate mode                            : Constant
Bit rate                                 : 384 kb/s
Channel(s)                               : 6 channels
Channel layout                           : L R C LFE Ls Rs
Sampling rate                            : 48.0 kHz
Frame rate                               : 31.250 FPS (1536 SPF)
Bit depth                                : 16 bits
Compression mode                         : Lossy
Stream size                              : 335 MiB (1%)
Title                                    : , 5.1, 384 Kbps
Language                                 : Ukrainian
Service kind                             : Complete Main
Default                                  : Yes
Forced                                   : No

Audio #2
ID                                       : 3
Format                                   : AC-3
Format/Info                              : Audio Coding 3
Commercial name                          : Dolby Digital
Codec ID                                 : A_AC3
Duration                                 : 2 h 1 min
Bit rate mode                            : Constant
Bit rate                                 : 640 kb/s
Channel(s)                               : 6 channels
Channel layout                           : L R C LFE Ls Rs
Sampling rate                            : 48.0 kHz
Frame rate                               : 31.250 FPS (1536 SPF)
Bit depth                                : 16 bits
Compression mode                         : Lossy
Stream size                              : 558 MiB (1%)
Title                                    : , 5.1, 640 Kbps
Language                                 : English
Service kind                             : Complete Main
Default                                  : No
Forced                                   : No

Audio #3
ID                                       : 4
Format                                   : MLP FBA 16-ch
Format/Info                              : Meridian Lossless Packing FBA with 16-channel presentation
Commercial name                          : Dolby TrueHD with Dolby Atmos
Codec ID                                 : A_TRUEHD
Duration                                 : 2 h 1 min
Bit rate mode                            : Variable
Bit rate                                 : 3 819 kb/s
Maximum bit rate                         : 7 158 kb/s
Channel(s)                               : 8 channels
Channel layout                           : L R C LFE Ls Rs Lb Rb
Sampling rate                            : 48.0 kHz
Frame rate                               : 1 200.000 FPS (40 SPF)
Compression mode                         : Lossless
Stream size                              : 3.25 GiB (7%)
Title                                    : TrueHD, 7.1, 3819 Kbps
Language                                 : English
Default                                  : No
Forced                                   : No
Number of dynamic objects                : 15
Bed channel count                        : 1 channel
Bed channel configuration                : LFE

Text #1
ID                                       : 5
Format                                   : UTF-8
Codec ID                                 : S_TEXT/UTF8
Codec ID/Info                            : UTF-8 Plain Text
Duration                                 : 1 h 54 min
Bit rate                                 : 5 b/s
Count of elements                        : 72
Stream size                              : 4.20 KiB (0%)
Title                                    : Forced
Language                                 : Ukrainian
Default                                  : Yes
Forced                                   : No

Text #2
ID                                       : 6
Format                                   : UTF-8
Codec ID                                 : S_TEXT/UTF8
Codec ID/Info                            : UTF-8 Plain Text
Duration                                 : 1 h 57 min
Bit rate                                 : 75 b/s
Count of elements                        : 1108
Stream size                              : 64.8 KiB (0%)
Title                                    : Full [iTunes]
Language                                 : English
Default                                  : No
Forced                                   : No

Text #3
ID                                       : 7
Format                                   : UTF-8
Codec ID                                 : S_TEXT/UTF8
Codec ID/Info                            : UTF-8 Plain Text
Duration                                 : 1 h 54 min
Bit rate                                 : 44 b/s
Count of elements                        : 1326
Stream size                              : 36.9 KiB (0%)
Title                                    : Full
Language                                 : English
Default                                  : No
Forced                                   : No

Text #4
ID                                       : 8
Format                                   : UTF-8
Codec ID                                 : S_TEXT/UTF8
Codec ID/Info                            : UTF-8 Plain Text
Duration                                 : 1 h 58 min
Bit rate                                 : 55 b/s
Count of elements                        : 1735
Stream size                              : 47.9 KiB (0%)
Title                                    : SDH
Language                                 : English
Default                                  : No
Forced                                   : No

Menu
00:00:01.700                             : en:Studio Logo
00:00:15.700                             : en:Makeup
00:01:32.700                             : en:Broken Sign
00:03:43.700                             : en:Therapy
00:07:42.700                             : en:Bus
00:09:15.700                             : en:Meeting Murray
00:15:21.700                             : en:Protection
00:19:13.700                             : en:Enter Sophie
00:21:01.700                             : en:Bath
00:23:34.700                             : en:Following
00:24:53.700                             : en:Comedy Scout
00:26:01.700                             : en:Invite
00:27:59.700                             : en:Hospital Gig
00:29:23.700                             : en:Subway Scuffle
00:34:10.700                             : en:Fleeing
00:36:14.700                             : en:First Kiss
00:36:46.700                             : en:Punching Out
00:38:14.700                             : en:Wayne Interview
00:39:56.700                             : en:Negative Thoughts
00:42:14.700                             : en:Open Mic
00:45:15.700                             : en:Date
00:46:21.700                             : en:Letter to Wayne
00:50:23.700                             : en:Clipping
00:51:12.700                             : en:Wayne Manor
00:55:16.700                             : en:Emergency
00:56:19.700                             : en:Detectives
00:58:32.700                             : en:Arthur on T.V.
01:01:01.700                             : en:Protest Coverage
01:02:18.700                             : en:Meeting Wayne
01:07:11.700                             : en:Invitation
01:09:36.700                             : en:Arkham
01:13:26.700                             : en:Penny's File
01:15:41.700                             : en:Sophie's Place
01:19:49.700                             : en:Life's a Comedy
01:22:12.700                             : en:Practice
01:24:28.700                             : en:Randall and Gary visit Arthur
01:30:15.700                             : en:Stairwell Waltz
01:34:51.700                             : en:Dressing Room
01:37:02.700                             : en:Arthur's Big Moment
01:46:35.700                             : en:Riot
01:49:05.700                             : en:Crime Alley
01:50:02.700                             : en:Joker's Fans
01:52:33.700                             : en:Thinking of a Joke
01:55:39.700                             : en:End Credits
Скріншоти



Джерело: &
Особиста оцінка: 9 - давно не бачив настільки якісне кіно
Увага! Перед завантаженням переконайтесь, що ваш пристрій відтворення (та/або ПЗ) підтримує H.265 (HEVC)


Золотий реліз (завантажене не впливає на рейтинг)
 Трекер:    Зареєстрований   

Завантажити / скачати фільм українською



відео для новачків



 Зареєстрований:   2019-12-30 01:15
 Розмір:   46.89 GB 
 Оцінка фільму:   9/10 (Голосів: 44)
   
Інші релізи
   Джокер / Joker (2019) Blu-Ray 1080р Ukr/Eng/Multi | Sub Ukr/Eng/Multi [Custom] kryk-v.ya.  2 / 0   32.14 GB   2020-02-01 14:44 
   Джокер / Joker (2019) Ukr/Eng antik_2008  27 / 1   2.29 GB   2020-01-02 10:40 
   Джокер / Joker (2019) antik_2008  16 / 0   1.6 GB   2020-01-02 10:38 
   Джокер / Joker (2019) 1080p H.265 Ukr/Eng | Sub Eng -Star-Lord-  22 / 0   8.49 GB   2019-12-30 01:34 
   Джокер / Joker (2019) 1080р Ukr/Eng | Sub Eng antik_2008  19 / 0   9.91 GB   2019-12-30 01:12 
   Джокер / Joker (2019) Remux 1080p Ukr/Eng | Sub Eng antik_2008  12 / 0   21.02 GB   2019-12-30 01:09 
   Джокер / Joker (2019) 720p Ukr/Eng | Sub Eng 11FrYkT  12 / 0   4.78 GB   2019-12-28 23:01 
   Джокер / Joker (2019) AVC Ukr/Eng | Sub Eng 11FrYkT  26 / 0   2.45 GB   2019-12-28 22:57 
Kozak133 
Частий відвідувач


З нами з: 07.12.15
Востаннє: 26.09.20
Повідомлень: 38

2019-12-26 20:06  
З цим кодеком не потрібен монітор з ХДР?
У мене є ХДР, але западло його активувати кожного разу.

uaxpasha 
VIP


З нами з: 05.08.12
Востаннє: 26.09.20
Повідомлень: 346

2019-12-29 13:03  
5.1 буде?
Anonymous 







2019-12-30 01:15  
30.12.2019 Роздачу оновлено


Замінив доріжку на 5.1 @ 384 kbps

YurOK_88 
Новенький


З нами з: 26.09.18
Востаннє: 19.09.20
Повідомлень: 13

2019-12-31 14:32  
Переглянув половину і не витримав більше, найдурніший фільм який я бачив
[email protected] 
Відео Гуртом - підтримка та поширення
Відео Гуртом - підтримка та поширення


З нами з: 16.06.12
Востаннє: 20.09.20
Повідомлень: 1427

2020-01-19 10:44  
Не легкий фільм для перегляду, але розкриває Джокера як персонажа зовсім з іншої сторони, не так як його завжди трактували в коміксах.
tktl 
Частий відвідувач


З нами з: 25.08.13
Востаннє: 27.09.20
Повідомлень: 38

2020-01-20 18:27  
Можливо сподобається тим, хто вважає твори Пауло Коельйо вершиною психологічної та\або філософської літератури.
Як на мене, перегляду не вартий.

danfil 
Новенький


З нами з: 05.02.20
Востаннє: 29.05.20
Повідомлень: 10

2020-02-13 08:48  
Чому фільм не перекладений на українську?(Я маю на увазі у кінотеатрі була назва на українській мові "Джокер", були перекладені назви у блокноті, на картинці у тролейбусі)
sumarmds 
Новенький


З нами з: 10.07.19
Востаннє: 26.09.20
Повідомлень: 14

2020-09-23 09:44  
YurOK_88 написано:
Переглянув половину і не витримав більше, найдурніший фільм який я бачив

І правильно зробив. Точно нічого не втратив! Happy

tktl написано:
Як на мене, перегляду не вартий.

+1

Ваш часовий пояс: GMT + 2 Години

Нова тема   Відповісти