Земля до початку часів 11. Вторгнення Крихтозаврів / The Land Before Time XI: Invasion of the Tinysauruses (2005) -AVC Ukr/Eng

Нові коментарі

Нова тема   Відповісти
Автор Повідомлення
sergiyko.5 
Забанено
Забанено


З нами з: 25.02.16
Востаннє: 29.10.20
Повідомлень: 3651

2019-12-22 16:38  
Всі одноіменні релізи на трекері

Земля до початку часів 11. Вторгнення Крихтозаврів / The Land Before Time XI: Invasion of the Tinysauruses (2005) -AVC Ukr/Eng


Земля до початку часів 11. Вторгнення Крихтозаврів / The Land Before Time XI: Invasion of the Tinysauruses (2005) -AVC Ukr/Eng

Жанр: мультфільм, пригоди, сімейний
Країна: США
Кінокомпанія: Universal Cartoon Studios
Режисер: Чарльз Гросвенор

Сюжет:
Цього разу друзям-динозаврикам доведеться зіткнутися з черговою загрозою - на Велику Долину нападуть Крихтозаври. Для них це буде чудова можливість помститися недовірливим динозаврикам.
Цері доведеться розлучитися з батьком, який зустрів під час міграції свою давню подругу, до якої він мав ніжні почуття. Чи спробує крихітка Цера якось вплинути на тата, щоб він залишився поруч?




Тривалість: 01:20:50
Якість:

Відео: кодек: розмір кадру: 720 х 536 бітрейт: 1200 кб/с
Аудіо # 1: мова: українська переклад: професійний дубльований кодек: 2.0 бітрейт: 192 кб/с
Озвучення:
Аудіо # 2: мова: англійська переклад: оригінал кодек: 5.1 бітрейт: 448 кб/с
Про файл:
General
Unique ID : 324618999388504518402700527472522701754 (0xF437585B5A561570829A9E2BFDE62BBA)
Complete name : D:\Documents\Torrents\MULT\The Land Before Time 11.Invasion of the Tinysauruses.2005..
Format :
Format version : Version 4
File size : 1.03 GiB
Duration : 1 h 20 min
Overall bit rate : 1 821 kb/s
Movie name : The Land Before Time 11 by sergiyko
Encoded date : UTC 2019-12-22 14:29:58
Writing application : v41.0.0 ('Smarra') 64-bit
Writing library : libebml v1.3.9 + v1.5.2

Video
ID : 1
Format : AVC
Format/Info : Advanced Video Codec
Format profile : [email protected]
Format settings : CABAC / 11 Ref Frames
Format settings, CABAC : Yes
Format settings, Reference : 11 frames
Codec ID : V_MPEG4/ISO/AVC
Duration : 1 h 20 min
Bit rate : 1 180 kb/s
Width : 720 pixels
Height : 536 pixels
Display aspect ratio : 4:3
Frame rate mode : Constant
Frame rate : 23.976 (23976/1000) FPS
Color space : YUV
Chroma subsampling : 4:2:0
Bit depth : 8 bits
Scan type : Progressive
Bits/(Pixel*Frame) : 0.127
Stream size : 682 MiB (65%)
Title : The Land Before Time 11
Writing library : core 157 r2969 d4099dd
Encoding settings : cabac=1 / ref=11 / deblock=1:1:1 / analyse=0x3:0x133 / me=umh / subme=10 / psy=1 / psy_rd=0.40:0.00 / mixed_ref=1 / me_range=32 / chroma_me=1 / trellis=2 / 8x8dct=1 / cqm=0 / deadzone=21,11 / fast_pskip=1 / chroma_qp_offset=-2 / threads=17 / lookahead_threads=1 / sliced_threads=0 / nr=0 / decimate=1 / interlaced=0 / bluray_compat=0 / constrained_intra=0 / bframes=5 / b_pyramid=2 / b_adapt=2 / b_bias=0 / direct=1 / weightb=1 / open_gop=0 / weightp=2 / keyint=250 / keyint_min=23 / scenecut=40 / intra_refresh=0 / rc_lookahead=60 / rc=crf / mbtree=1 / crf=18.0 / qcomp=0.60 / qpmin=0 / qpmax=69 / qpstep=4 / ip_ratio=1.40 / aq=1:0.60
Language : English
Default : Yes
Forced : No

Audio #1
ID : 2
Format : AC-3
Format/Info : Audio Coding 3
Commercial name : Dolby Digital
Codec ID : A_AC3
Duration : 1 h 20 min
Bit rate mode : Constant
Bit rate : 192 kb/s
Channel(s) : 2 channels
Channel layout : L R
Sampling rate : 48.0 kHz
Frame rate : 31.250 FPS (1536 SPF)
Compression mode : Lossy
Stream size : 111 MiB (11%)
Title : DUB 2ch | K1
Language : Ukrainian
Service kind : Complete Main
Default : Yes
Forced : Yes

Audio #2
ID : 3
Format : AC-3
Format/Info : Audio Coding 3
Commercial name : Dolby Digital
Codec ID : A_AC3
Duration : 1 h 20 min
Bit rate mode : Constant
Bit rate : 448 kb/s
Channel(s) : 6 channels
Channel layout : L R C LFE Ls Rs
Sampling rate : 48.0 kHz
Frame rate : 31.250 FPS (1536 SPF)
Compression mode : Lossy
Stream size : 259 MiB (25%)
Title : Original
Language : English
Service kind : Complete Main
Default : No
Forced : No
Скріншоти:


Запис/зведення/ріп: sergiyko


 Трекер:    Зареєстрований   

Завантажити / скачати мультфільм українською



відео для новачків



 Зареєстрований:   2019-12-22 16:38
 Розмір:   1.03 GB 
 Оцінка мультфільму:   9.9/10 (Голосів: 12)
   
max factor 
Частий відвідувач


З нами з: 08.01.19
Востаннє: 15.10.20
Повідомлень: 42

2019-12-24 21:27  
Дуже дякую вам за вашу працю. Мій респект вам.
Ваш часовий пояс: GMT + 2 Години

Нова тема   Відповісти