Таємниці райських схилів / Paradise Hills (2019) Remux 1080p Ukr/Eng | Sub Eng

Нові коментарі

Нова тема   Відповісти
Автор Повідомлення
Anonymous 







2019-12-21 18:42  
Таємниці райських схилів / Paradise Hills (2019) Remux 1080p Ukr/Eng | Sub Eng

Таємниці райських схилів / Paradise Hills (2019) Remux 1080p Ukr/Eng | Sub Eng
Альтернативний постер:


«Дивний новий світ»



Жанр: трилер, фантастика, фентезі
Країна: Іспанія



Кінокомпанія: Nostromo Pictures, Colina Paraiso AIE, Radio Televisión Española (RTVE)
Режисер: Еліс Веддінгтон
Актори: Емма Робертс, Даніель МакДональд, Аквафіна, Мілла Йовович, Ейса Гонсалес, Арно Валуа

Сюжет:
За сюжетом головна героїня потрапить в незвичайний пансіонат на тропічному острові, куди батьки відправляють своїх дівчаток на перевиховання. Все тут виглядає ідеально, але незабаром дівчина здогадається, що за уявною ідилією стоїть справжній кошмар.


Тривалість: 01:34:37
Якість: Remux 1080p

Відео:
кодек:
розмір кадру: 1920 x 1080
бітрейт: 27 Мб/с

Аудіо # 1:
мова: українська
переклад: професійний дубльований
кодек: 5.1
бітрейт: 384 кб/с

Аудіо # 2:
мова: англійська
переклад: оригінал
кодек: 5.1
бітрейт: 640 кб/с

Аудіо # 3:
мова: англійська
переклад: оригінал
кодек: TrueHD + Atmos 5.1
бітрейт: 2754 кб/с

Субтитри (Full, SDH) :
мова: англійська
тип: програмні (м'які)
формат: *.srt
Info
Код:
General
Complete name                            : Paradise Hills (2019) Remux 1080p [UKR_ENG] [ViDeO_Hurtom].
Format                                   :
Format version                           : Version 4
File size                                : 20.2 GiB
Duration                                 : 1 h 34 min
Overall bit rate mode                    : Variable
Overall bit rate                         : 30.6 Mb/s
Encoded date                             : UTC 2019-12-24 16:08:46
Writing application                      : v30.1.0 ('Forever And More') 64-bit
Writing library                          : libebml v1.3.6 + v1.4.9
Cover                                    : Yes
Attachments                              : cover.jpg

Video
ID                                       : 1
Format                                   : AVC
Format/Info                              : Advanced Video Codec
Format profile                           : [email protected]
Format settings                          : CABAC / 4 Ref Frames
Format settings, CABAC                   : Yes
Format settings, RefFrames               : 4 frames
Codec ID                                 : V_MPEG4/ISO/AVC
Duration                                 : 1 h 34 min
Bit rate mode                            : Variable
Bit rate                                 : 27.0 Mb/s
Maximum bit rate                         : 34.0 Mb/s
Width                                    : 1 920 pixels
Height                                   : 1 080 pixels
Display aspect ratio                     : 16:9
Frame rate mode                          : Constant
Frame rate                               : 23.976 (24000/1001) FPS
Standard                                 : NTSC
Color space                              : YUV
Chroma subsampling                       : 4:2:0
Bit depth                                : 8 bits
Scan type                                : Progressive
Bits/(Pixel*Frame)                       : 0.543
Stream size                              : 17.8 GiB (88%)
Language                                 : English
Default                                  : Yes
Forced                                   : No
Color range                              : Limited
Color primaries                          : BT.709
Transfer characteristics                 : BT.709
Matrix coefficients                      : BT.709

Audio #1
ID                                       : 2
Format                                   : AC-3
Format/Info                              : Audio Coding 3
Commercial name                          : Dolby Digital
Codec ID                                 : A_AC3
Duration                                 : 1 h 34 min
Bit rate mode                            : Constant
Bit rate                                 : 192 kb/s
Channel(s)                               : 2 channels
Channel layout                           : L R
Sampling rate                            : 48.0 kHz
Frame rate                               : 31.250 FPS (1536 SPF)
Bit depth                                : 16 bits
Compression mode                         : Lossy
Stream size                              : 130 MiB (1%)
Title                                    : , 2 ch, 192 Кбт/с
Language                                 : Ukrainian
Service kind                             : Complete Main
Default                                  : Yes
Forced                                   : No

Audio #2
ID                                       : 3
Format                                   : AC-3
Format/Info                              : Audio Coding 3
Commercial name                          : Dolby Digital
Codec ID                                 : A_AC3
Duration                                 : 1 h 34 min
Bit rate mode                            : Constant
Bit rate                                 : 640 kb/s
Channel(s)                               : 6 channels
Channel layout                           : L R C LFE Ls Rs
Sampling rate                            : 48.0 kHz
Frame rate                               : 31.250 FPS (1536 SPF)
Bit depth                                : 16 bits
Compression mode                         : Lossy
Stream size                              : 433 MiB (2%)
Title                                    : , 6 ch, 640 Кбт/с
Language                                 : English
Service kind                             : Complete Main
Default                                  : No
Forced                                   : No

Audio #3
ID                                       : 4
Format                                   : MLP FBA
Format/Info                              : Meridian Lossless Packing FBA
Commercial name                          : Dolby TrueHD
Codec ID                                 : A_TRUEHD
Duration                                 : 1 h 34 min
Bit rate mode                            : Variable
Bit rate                                 : 2 754 kb/s
Maximum bit rate                         : 4 710 kb/s
Channel(s)                               : 6 channels
Channel layout                           : L R C LFE Ls Rs
Sampling rate                            : 96.0 kHz
Frame rate                               : 1 200.000 FPS (80 SPF)
Compression mode                         : Lossless
Stream size                              : 1.82 GiB (9%)
Title                                    : TrueHD, 6 ch, 2754 Кбт/с
Language                                 : English
Default                                  : No
Forced                                   : No

Text #1
ID                                       : 5
Format                                   : UTF-8
Codec ID                                 : S_TEXT/UTF8
Codec ID/Info                            : UTF-8 Plain Text
Duration                                 : 1 h 28 min
Bit rate                                 : 41 b/s
Count of elements                        : 993
Stream size                              : 26.5 KiB (0%)
Title                                    : Full
Language                                 : English
Default                                  : No
Forced                                   : No

Text #2
ID                                       : 6
Format                                   : UTF-8
Codec ID                                 : S_TEXT/UTF8
Codec ID/Info                            : UTF-8 Plain Text
Duration                                 : 1 h 28 min
Bit rate                                 : 50 b/s
Count of elements                        : 1175
Stream size                              : 32.7 KiB (0%)
Title                                    : SDH
Language                                 : English
Default                                  : No
Forced                                   : No

Menu
00:00:00.000                             : en:Глава 01
00:08:12.117                             : en:Глава 02
00:15:35.017                             : en:Глава 03
00:24:04.610                             : en:Глава 04
00:31:03.028                             : en:Глава 05
00:39:12.600                             : en:Глава 06
00:46:48.806                             : en:Глава 07
00:56:15.706                             : en:Глава 08
01:03:43.945                             : en:Глава 09
01:09:15.568                             : en:Глава 10
01:16:38.677                             : en:Глава 11
01:25:29.958                             : en:Глава 12
Скріншоти


Джерело:
Особиста оцінка: 7 - моїй подрузі не сподобалося


Золотий реліз (завантажене не впливає на рейтинг)
 Трекер:    Зареєстрований   

Завантажити / скачати фільм українською



відео для новачків



 Зареєстрований:   2020-01-18 00:13
 Розмір:   20.38 GB 
 Оцінка фільму:   8.7/10 (Голосів: 10)
   
bot 
робот


З нами з: 30.09.07
Востаннє: 26.05.05
Повідомлень: 25602

2019-12-24 20:50  
Тему перенесено з Анонси релізів до форуму Фільми в HD


antik_2008

подвох 
Частий відвідувач


З нами з: 29.03.18
Востаннє: 23.09.20
Повідомлень: 47

2019-12-26 00:50  
4 з 12ти...
Anonymous 







2020-01-18 00:14  
Торент файл оновлено. Заміна аудіо на 5.1
Anonymous 







2020-04-30 12:00  
7 з 10
Ваш часовий пояс: GMT + 2 Години

Нова тема   Відповісти