Підривники / Blown Away (1994) 1080p H.265 2xUkr/Eng | Sub Eng

Нові коментарі

Нова тема   Відповісти
Автор Повідомлення
Anonymous 







2019-12-20 22:33  
Підривники / Blown Away (1994) 1080p H.265 2xUkr/Eng | Sub Eng

Підривники / Blown Away (1994) 1080p H.265 2xUkr/Eng | Sub Eng


Жанр: бойовик, трилер, драма
Країна: США
Кінокомпанія: Metro-Goldwyn-Mayer (MGM), Trilogy Entertainment Group
Режисер: Стівен Гопкінс / Stephen Hopkins
Актори: Джеф Бріджес / Jeff Bridges, Томмі Лі Джонс / Tommy Lee Jones, Сьюзі Аміс / Suzy Amis, Ллойд Бріджес / Lloyd Bridges, Форест Вайтакер / Forest Whitaker, Джон Фінн / John Finn, Кейтлін Кларк / Caitlin Clarke, Крістофер Де Оні / Christofer de Oni, Стефі Лайнбург / Stephi Lineburg та інші

Сюжет:
Ллойд Бріджес в ролі сапера, що працює в поліції. Він збирається одружитися на прекрасній жінці, у якої є чудова донька. Але його майбутня дружина не знає про минуле свого чоловіка. А той у молодості був ірландським терористом, що спеціалізуються на вибухах. Колись він запобіг вибух, в результаті якого могли загинути сотні людей, але мимоволі став причиною загибелі своїх товаришів і коханої дівчини, дочки людини, який захопив його помилковим героїзмом цієї жорстокої боротьби і навчив усього, що можна знати про бомби. Втікши з в'язниці, вчитель знаходить невдячного учня і починає мстити за зраду, вбиваючи його колег по роботі, а в кінці плануючи вбити його нову сім'ю.

Тривалість: 02:00:42
Якість:

Відео:
кодек: H.265 (HEVC)
розмір кадру: 1920 x 800
бітрейт: 10 605 кб/с
бітова глибина: 10 біт

Увага! Перед завантаженням переконайтесь, що ваш пристрій відтворення (та/або ПЗ) підтримує H.265 (HEVC)

Аудіо # 1:
мова: українська
переклад: багатоголосий закадровий
кодек: AC-3 2.0
бітрейт: 192 кб/с

Аудіо # 2:
мова: українська
переклад: двоголосий закадровий
кодек: AC-3 2.0
бітрейт: 192 кб/с

Аудіо # 3:
мова: англійська
переклад: оригінал
кодек: AC-3 5.1
бітрейт: 640 кб/с

Аудіо # 4:
мова: англійська
переклад: оригінал | коментарі
кодек: 2.0
бітрейт: 79 кб/с

Субтитри # 1: (Full)
мова: англійська
тип: програмні (м'які)
формат: *.srt


Info
Код:
General
Unique ID                                : 92919921549584626048888830746613456007 (0x45E7B9D6D3A4AFFEFF805D7FAB571C87)
Complete name                            : Blown Away (1994) 1080p H.265 [2xUKR_ENG] [Hurtom].
Format                                   :
Format version                           : Version 4
File size                                : 9.87 GiB
Duration                                 : 2 h 0 min
Overall bit rate                         : 11.7 Mb/s
Movie name                               : Підривники / Blown Away (1994)
Encoded date                             : UTC 2019-12-18 08:39:50
Writing application                      : v20.0.0 ('I Am The Sun') 64-bit
Writing library                          : libebml v1.3.5 + v1.4.8
Cover                                    : Yes
Attachments                              : cover.jpg

Video
ID                                       : 1
Format                                   : HEVC
Format/Info                              : High Efficiency Video Coding
Format profile                           : Main [email protected]@High
Codec ID                                 : V_MPEGH/ISO/HEVC
Duration                                 : 2 h 0 min
Bit rate                                 : 10.6 Mb/s
Width                                    : 1 920 pixels
Height                                   : 800 pixels
Display aspect ratio                     : 2.40:1
Frame rate mode                          : Constant
Frame rate                               : 23.976 (24000/1001) FPS
Color space                              : YUV
Chroma subsampling                       : 4:2:0
Bit depth                                : 10 bits
Bits/(Pixel*Frame)                       : 0.288
Stream size                              : 8.94 GiB (91%)
Title                                    : Підривники / Blown Away (1994)
Writing library                          : x265 3.1+7-147fb92c5ed5:[Windows][clang 8.0.0][64 bit] 10bit
Encoding settings                        : cpuid=1111039 / frame-threads=13 / wpp / no-pmode / no-pme / no-psnr / no-ssim / log-level=3 / input-csp=1 / input-res=1920x800 / interlace=0 / total-frames=0 / level-idc=41 / high-tier=1 / uhd-bd=0 / ref=5 / allow-non-conformance / no-repeat-headers / annexb / no-aud / no-hrd / info / hash=0 / no-temporal-layers / open-gop / min-keyint=23 / keyint=240 / gop-lookahead=0 / bframes=8 / b-adapt=2 / b-pyramid / bframe-bias=0 / rc-lookahead=60 / lookahead-slices=4 / scenecut=60 / radl=0 / no-splice / no-intra-refresh / ctu=64 / min-cu-size=8 / rect / amp / max-tu-size=32 / tu-inter-depth=4 / tu-intra-depth=4 / limit-tu=4 / rdoq-level=2 / dynamic-rd=0.00 / no-ssim-rd / signhide / no-tskip / nr-intra=0 / nr-inter=0 / no-constrained-intra / no-strong-intra-smoothing / max-merge=5 / limit-refs=3 / limit-modes / me=3 / subme=7 / merange=57 / temporal-mvp / no-hme / weightp / weightb / no-analyze-src-pics / deblock=-3:-3 / no-sao / no-sao-non-deblock / rd=6 / no-early-skip / no-rskip / no-fast-intra / no-tskip-fast / no-cu-lossless / no-b-intra / no-splitrd-skip / rdpenalty=0 / psy-rd=2.00 / psy-rdoq=1.00 / no-rd-refine / no-lossless / cbqpoffs=0 / crqpoffs=0 / rc=crf / crf=19.5 / qcomp=0.60 / qpstep=4 / stats-write=0 / stats-read=0 / vbv-maxrate=50000 / vbv-bufsize=50000 / vbv-init=0.9 / crf-max=30.0 / crf-min=0.0 / ipratio=1.40 / pbratio=1.30 / aq-mode=2 / aq-strength=1.00 / no-cutree / zone-count=0 / no-strict-cbr / qg-size=32 / no-rc-grain / qpmax=69 / qpmin=0 / no-const-vbv / sar=1 / overscan=0 / videoformat=5 / range=0 / colorprim=1 / transfer=1 / colormatrix=1 / chromaloc=0 / display-window=0cll=0,0 / min-luma=0 / max-luma=1023 / log2-max-poc-lsb=8 / vui-timing-info / vui-hrd-info / slices=1 / no-opt-qp-pps / no-opt-ref-list-length-pps / no-multi-pass-opt-rps / scenecut-bias=0.05 / no-opt-cu-delta-qp / no-aq-motion / no-hdr / no-hdr-opt / no-dhdr10-opt / no-idr-recovery-sei / analysis-reuse-level=5 / scale-factor=0 / refine-intra=0 / refine-inter=0 / refine-mv=0 / refine-ctu-distortion=0 / no-limit-sao / ctu-info=0 / no-lowpass-dct / refine-analysis-type=2001329714 / copy-pic=1 / max-ausize-factor=1.0 / no-dynamic-refine / no-single-sei / no-hevc-aq / no-svt / no-field / qp-adaptation-range=1.00
Default                                  : Yes
Forced                                   : No
Color range                              : Limited
Color primaries                          : BT.709
Transfer characteristics                 : BT.709
Matrix coefficients                      : BT.709

Audio #1
ID                                       : 2
Format                                   : AC-3
Format/Info                              : Audio Coding 3
Commercial name                          : Dolby Digital
Codec ID                                 : A_AC3
Duration                                 : 2 h 0 min
Bit rate mode                            : Constant
Bit rate                                 : 192 kb/s
Channel(s)                               : 2 channels
Channel layout                           : L R
Sampling rate                            : 48.0 kHz
Frame rate                               : 31.250 FPS (1536 SPF)
Bit depth                                : 16 bits
Compression mode                         : Lossy
Stream size                              : 166 MiB (2%)
Title                                    : / 2.0 Ch / 192 kbps / БЗ / ICTV
Language                                 : Ukrainian
Service kind                             : Complete Main
Default                                  : Yes
Forced                                   : Yes

Audio #2
ID                                       : 3
Format                                   : AC-3
Format/Info                              : Audio Coding 3
Commercial name                          : Dolby Digital
Codec ID                                 : A_AC3
Duration                                 : 2 h 0 min
Bit rate mode                            : Constant
Bit rate                                 : 192 kb/s
Channel(s)                               : 2 channels
Channel layout                           : L R
Sampling rate                            : 48.0 kHz
Frame rate                               : 31.250 FPS (1536 SPF)
Bit depth                                : 16 bits
Compression mode                         : Lossy
Stream size                              : 166 MiB (2%)
Title                                    : / 2.0 Ch / 192 kbps / ДЗ / 1+1
Language                                 : Ukrainian
Service kind                             : Complete Main
Default                                  : No
Forced                                   : No

Audio #3
ID                                       : 4
Format                                   : AC-3
Format/Info                              : Audio Coding 3
Commercial name                          : Dolby Digital
Codec ID                                 : A_AC3
Duration                                 : 2 h 0 min
Bit rate mode                            : Constant
Bit rate                                 : 640 kb/s
Channel(s)                               : 6 channels
Channel layout                           : L R C LFE Ls Rs
Sampling rate                            : 48.0 kHz
Frame rate                               : 31.250 FPS (1536 SPF)
Bit depth                                : 16 bits
Compression mode                         : Lossy
Stream size                              : 553 MiB (5%)
Title                                    : / 5.1 Ch / 640 kbps / Original
Language                                 : English
Service kind                             : Complete Main
Default                                  : No
Forced                                   : No

Audio #4
ID                                       : 5
Format                                   : LC
Format/Info                              : Advanced Audio Codec Low Complexity
Codec ID                                 : A_AAC-2
Duration                                 : 2 h 0 min
Bit rate                                 : 79.5 kb/s
Channel(s)                               : 2 channels
Channel layout                           : L R
Sampling rate                            : 48.0 kHz
Frame rate                               : 46.875 FPS (1024 SPF)
Compression mode                         : Lossy
Delay relative to video                  : 9 ms
Stream size                              : 68.6 MiB (1%)
Title                                    : / 2.0 Ch / 81 kbps / Original / Commentary
Language                                 : English
Default                                  : No
Forced                                   : No

Text
ID                                       : 6
Format                                   : UTF-8
Codec ID                                 : S_TEXT/UTF8
Codec ID/Info                            : UTF-8 Plain Text
Duration                                 : 1 h 53 min
Bit rate                                 : 44 b/s
Count of elements                        : 1038
Stream size                              : 37.0 KiB (0%)
Title                                    : Full
Language                                 : English
Default                                  : No
Forced                                   : No

Menu
00:00:00.000                             : en:00:00:00.000
00:16:33.450                             : en:00:16:33.450
00:34:24.771                             : en:00:34:24.771
00:52:07.833                             : en:00:52:07.833
01:11:45.426                             : en:01:11:45.426
01:21:58.455                             : en:01:21:58.455
01:35:07.868                             : en:01:35:07.868
01:49:33.984                             : en:01:49:33.984
Світлини




Джерело: &
Особиста оцінка: 0 - не дивився


Срібний реліз (на рейтинг впливає 50% завантаженого)
 Трекер:    Зареєстрований   

Завантажити / скачати фільм українською



відео для новачків



 Зареєстрований:   2019-12-20 22:33
 Розмір:   9.87 GB 
 Оцінка фільму:   10/10 (Голосів: 1)
   
Інші релізи
   Підривники / Blown Away (1994) Remux 1080p 2xUkr/Eng | Sub Eng kryk-v.ya.  1 / 0   17.58 GB   2020-02-27 12:57 
   Підривники / Blown Away (1994) 2xUkr igor911  3 / 0   2.13 GB   2016-10-13 21:05 
   Підривники / Blown Away (1994) 720p 2xUkr/Eng | Sub Eng igor911  2 / 0   7.68 GB   2016-10-13 20:20 
Ваш часовий пояс: GMT + 2 Години

Нова тема   Відповісти