Врятована! / Saved! (2004) 1080p 2xUkr/Eng | Sub Ukr/Eng

Нові коментарі

Нова тема   Відповісти
Автор Повідомлення
Anonymous 







2019-12-20 21:59  
Врятована! / Saved! (2004) 1080p 2xUkr/Eng | Sub Ukr/Eng

Врятована! / Saved! (2004) 1080p 2xUkr/Eng | Sub Ukr/Eng


Жанр: комедія
Країна: США, Канада



Кінокомпанія: United Artists, Single Cell Pictures, Infinity Media
Режисер: Брайан Деннелі (Brian Dannelly)
Актори: Джена Мелоун (Jena Malone), Менді Мур (Mandy Moore), Маколей Калкін (Macaulay Culkin), Патрік Фьюджіт (Patrick Fugit), Хізер Матараццо (Heather Matarazzo), Єва Амуррі (Eva Amurri), Чед Фауст (Chad Faust), Елізабет Тай (Elizabeth Thai)

Сюжет:
Справжній шок відчуває старанна учениця баптистської школи Мері, коли дізнається, що вагітна від свого бойфренда, який, до того ж, нещодавно оголосив їй, що він - гей.

Найпопулярніша дівчина в школі, Хіларі Фей, оточила турботою прикутого до інвалідного крісла свого братика, Роланда, дізнавшись про гріхопадіння подруги, оголошує їй бойкот... Чи зможе Мері вирішити всі ці проблеми і вигукнути у фіналі: «Врятована!»?


Тривалість: 01:32:38
Якість: 1080p
Відео:
кодек:
розмір кадру: 1920х1040
бітрейт: 13.7 Mб/с

Аудіо # 1:
мова: українська
переклад: двоголосий закадровий | Так Треба Продакшн
кодек: 2.0
бітрейт: 192 кб/с

Аудіо # 2:
мова: українська
переклад: багатоголосий закадровий |
кодек: 2.0
бітрейт: 192 кб/с

Аудіо # 3:
мова: англійська
переклад: оригінал
кодек: 5.1
бітрейт: 1509 кб/с

Субтитри:
мова: українська
тип: програмні (м'які)
формат: *.srt

Субтитри:
мова: англійська
тип: програмні (м'які)
формат: *.srt
Info
General
Unique ID : 230694634644603957676362286092546929764 (0xAD8E2BA50BC46BEEB5AA60EFB882F464)
Complete name : H:\Toloka\2019\Saved! (2004) 1080p.
Format :
Format version : Version 4
File size : 10.1 GiB
Duration : 1 h 32 min
Overall bit rate : 15.6 Mb/s
Encoded date : UTC 2019-12-20 18:51:00
Writing application : v6.1.0 ('Old Devil') built on Mar 4 2013 09:10:42
Writing library : libebml v1.3.0 + v1.4.0

Video
ID : 1
Format : AVC
Format/Info : Advanced Video Codec
Format profile : [email protected]
Format settings : CABAC / 4 Ref Frames
Format settings, CABAC : Yes
Format settings, RefFrames : 4 frames
Codec ID : V_MPEG4/ISO/AVC
Duration : 1 h 32 min
Bit rate : 13.7 Mb/s
Width : 1 920 pixels
Height : 1 040 pixels
Display aspect ratio : 1.85:1
Frame rate mode : Constant
Frame rate : 23.976 (24000/1001) FPS
Color space : YUV
Chroma subsampling : 4:2:0
Bit depth : 8 bits
Scan type : Progressive
Bits/(Pixel*Frame) : 0.286
Stream size : 8.66 GiB (86%)
Writing library : core 148 r2705 3f5ed56
Encoding settings : cabac=1 / ref=4 / deblock=1:-3:-3 / analyse=0x3:0x113 / me=umh / subme=8 / psy=1 / psy_rd=1.15:0.00 / mixed_ref=1 / me_range=32 / chroma_me=1 / trellis=1 / 8x8dct=1 / cqm=0 / deadzone=21,11 / fast_pskip=1 / chroma_qp_offset=-2 / threads=24 / lookahead_threads=4 / sliced_threads=0 / nr=0 / decimate=1 / interlaced=0 / bluray_compat=0 / constrained_intra=0 / bframes=3 / b_pyramid=2 / b_adapt=2 / b_bias=0 / direct=3 / weightb=1 / open_gop=0 / weightp=2 / keyint=240 / keyint_min=24 / scenecut=40 / intra_refresh=0 / rc_lookahead=50 / rc=2pass / mbtree=1 / bitrate=13695 / ratetol=1.0 / qcomp=0.60 / qpmin=0 / qpmax=69 / qpstep=4 / cplxblur=20.0 / qblur=0.5 / ip_ratio=1.40 / aq=3:0.80
Default : Yes
Forced : No
Statistics Tags Issue : no_variable_data 1970-01-01 00:00:00 / v6.1.0 ('Old Devil') built on Mar 4 2013 09:10:42 2019-12-20 18:51:00
FromStats_BitRate : 13688512
FromStats_Duration : 01:32:38.428000000
FromStats_FrameCount : 133269
FromStats_StreamSize : 9510826587

Audio #1
ID : 2
Format : AC-3
Format/Info : Audio Coding 3
Commercial name : Dolby Digital
Codec ID : A_AC3
Duration : 1 h 32 min
Bit rate mode : Constant
Bit rate : 192 kb/s
Channel(s) : 2 channels
Channel layout : L R
Sampling rate : 48.0 kHz
Frame rate : 31.250 FPS (1536 SPF)
Bit depth : 16 bits
Compression mode : Lossy
Stream size : 127 MiB (1%)
Title : UKR (TTP)
Language : Ukrainian
Service kind : Complete Main
Default : Yes
Forced : Yes

Audio #2
ID : 3
Format : AC-3
Format/Info : Audio Coding 3
Commercial name : Dolby Digital
Codec ID : A_AC3
Duration : 1 h 32 min
Bit rate mode : Constant
Bit rate : 192 kb/s
Channel(s) : 2 channels
Channel layout : L R
Sampling rate : 48.0 kHz
Frame rate : 31.250 FPS (1536 SPF)
Bit depth : 16 bits
Compression mode : Lossy
Stream size : 127 MiB (1%)
Title : UKR (AMC)
Language : Ukrainian
Service kind : Complete Main
Default : No
Forced : No

Audio #3
ID : 4
Format :
Format/Info : Digital Theater Systems
Codec ID : A_DTS
Duration : 1 h 32 min
Bit rate mode : Constant
Bit rate : 1 509 kb/s
Channel(s) : 6 channels
Channel layout : C L R Ls Rs LFE
Sampling rate : 48.0 kHz
Frame rate : 93.750 FPS (512 SPF)
Bit depth : 24 bits
Compression mode : Lossy
Stream size : 1 001 MiB (10%)
Language : English
Default : No
Forced : No
Statistics Tags Issue : no_variable_data 1970-01-01 00:00:00 / v6.1.0 ('Old Devil') built on Mar 4 2013 09:10:42 2019-12-20 18:51:00
FromStats_BitRate : 1508999
FromStats_Duration : 01:32:38.454000000
FromStats_FrameCount : 521105
FromStats_StreamSize : 1048463260

Text #1
ID : 5
Format : UTF-8
Codec ID : S_TEXT/UTF8
Codec ID/Info : UTF-8 Plain Text
Title : UKR
Language : Ukrainian
Default : Yes
Forced : No

Text #2
ID : 6
Format : UTF-8
Codec ID : S_TEXT/UTF8
Codec ID/Info : UTF-8 Plain Text
Language : English
Default : No
Forced : No
Statistics Tags Issue : no_variable_data 1970-01-01 00:00:00 / v6.1.0 ('Old Devil') built on Mar 4 2013 09:10:42 2019-12-20 18:51:00
FromStats_BitRate : 74
FromStats_Duration : 01:30:41.978000000
FromStats_FrameCount : 1381
FromStats_StreamSize : 50343

Text #3
ID : 7
Format : UTF-8
Codec ID : S_TEXT/UTF8
Codec ID/Info : UTF-8 Plain Text
Title : SDH
Language : English
Default : No
Forced : No
Statistics Tags Issue : no_variable_data 1970-01-01 00:00:00 / v6.1.0 ('Old Devil') built on Mar 4 2013 09:10:42 2019-12-20 18:51:00
FromStats_BitRate : 80
FromStats_Duration : 01:30:51.613000000
FromStats_FrameCount : 1527
FromStats_StreamSize : 54528
Скріншоти






За українську доріжку №1 та укр.субтитри подяка п. urij546724
За запис звуку з каналу АМС дякуємо пану Krigg070
Особиста подяка пану denixx за надану матеріальну допомогу на підтримку цього і майбутніх релізів.
Джерело:


Срібний реліз (на рейтинг впливає 50% завантаженого)
 Трекер:    Зареєстрований   

Завантажити / скачати фільм українською



відео для новачків



 Зареєстрований:   2019-12-20 21:59
 Розмір:   10.08 GB 
 Оцінка фільму:   10/10 (Голосів: 3)
   
Інші релізи
   Врятована! / Saved! (2004) AVC 2xUkr/Eng | Sub Ukr/Eng Gingеrbread  4 / 0   1.77 GB   2020-01-11 22:31 
   Врятована! / Saved! (2004) Ukr/Eng | sub Ukr/Eng urij546724  2 / 0   1.45 GB   2012-08-18 20:12 
Ваш часовий пояс: GMT + 2 Години

Нова тема   Відповісти