Кінець Євангеліону / End of Evangelion (1997)

Нові коментарі

Нова тема   Відповісти
Автор Повідомлення
rzhumen88 
Новенький


З нами з: 18.08.18
Востаннє: 25.01.20
Повідомлень: 7

2019-12-20 14:09  
Кінець Євангеліону / End of Evangelion (1997)

Кінець Євангеліону / End of Evangelion (1997)


Жанр: фантастика, боєвик, драма
Країна: Японія



7.82 (9374 голосів)

Кінокомпанія: Gainax
Режисер: Хідеакі Анно
Ролі озвучують: Мєгумі Огата, Мєгумі Хаяшибара, Юко Міямура

Сюжет:
Канонічне завершення серіалу «Нова ера — Євангеліон». SEELE готується до втілення Проекту комплементації людства за допомогою Серійних Єв. Завадити цьому може лише підпорядкована організація NERV. Аска перебуває в післяопераційній палаті і не може пілотувати. Доля світу залежить від того, чи розбереться Шінджі в собі.


Тривалість: 1 серія: 47:00 - 40:00 (цілком серій: 2)
Перелік серій
Кінець Євангеліону 25 - Повітря
Кінець Євангеліону 26 - Ви потрібні мені (або "ще один фінал")
Якість:
Відео:
кодек:
розмір кадру: 720 х 416
бітрейт: 1961 кб/с

Аудіо:
мова: українська
переклад: багатоголосий закадровий Ukrop_Bob
кодек: MP3
бітрейт: 192 кб/с

Джерело озвучення:
Info
General
Unique ID : 296833382986090396937070890261845147303 (0xDF5007B33C4DB7B76F477FAB01D47EA7)
Complete name : D:\TORRENTS\кінець євангеліону\The End of Evangelion_25.
Format :
Format version : Version 4
File size : 723 MiB
Duration : 47 min 24 s
Overall bit rate : 2 134 kb/s
Encoded date : UTC 2018-04-24 20:23:11
Writing application : v21.0.0 ('Tardigrades Will Inherit The Earth') 64-bit
Writing library : libebml v1.3.5 + v1.4.8

Video
ID : 1
Format : MPEG-4 Visual
Format profile : Advanced [email protected]
Format settings : BVOP1 / Custom Matrix
Format settings, BVOP : 1
Format settings, QPel : No
Format settings, GMC : No warppoints
Format settings, Matrix : Custom
Codec ID : V_MS/VFW/FOURCC /
Codec ID/Hint :
Duration : 46 min 52 s
Bit rate : 1 961 kb/s
Width : 720 pixels
Height : 416 pixels
Display aspect ratio : 1.731
Frame rate mode : Constant
Frame rate : 23.976 (24000/1001) FPS
Color space : YUV
Chroma subsampling : 4:2:0
Bit depth : 8 bits
Scan type : Progressive
Compression mode : Lossy
Bits/(Pixel*Frame) : 0.273
Stream size : 658 MiB (91%)
Writing library : 1.2.0.dev47 (UTC 2006-11-01)
Default : Yes
Forced : No

Audio
ID : 2
Format : MPEG Audio
Format version : Version 1
Format profile : Layer 3
Codec ID : A_MPEG/L3
Codec ID/Hint : MP3
Duration : 47 min 24 s
Bit rate mode : Constant
Bit rate : 192 kb/s
Channel(s) : 2 channels
Sampling rate : 44.1 kHz
Frame rate : 38.281 FPS (1152 SPF)
Compression mode : Lossy
Stream size : 65.1 MiB (9%)
Default : Yes
Forced : Yes
Скріншоти




Джерело:


Авторський реліз (завантажувати можна без реєстрації)
 Трекер:    Зареєстрований   

Завантажити / скачати аніме українською



відео для новачків



 Зареєстрований:   2019-12-20 14:09
 Розмір:   1.41 GB 
 Оцінка аніме:   10/10 (Голосів: 4)
   
sawtet 
Новенький


З нами з: 13.06.16
Востаннє: 16.02.20
Повідомлень: 7

2019-12-21 12:18  
Так ріже вухо кацапське "г", там де українець би м'якіше сказав би. Чутно що люди (деякі) які озвучували в побуті розмовляють на язікє.
Akio Furukawa 
Частий відвідувач


З нами з: 02.11.19
Востаннє: 16.02.20
Повідомлень: 41

2019-12-21 14:09  
rzhumen88 
Новенький


З нами з: 18.08.18
Востаннє: 25.01.20
Повідомлень: 7

2019-12-23 18:38  
sawtet
це дуже стара озвучка, ми тоді не серьозно ставилися до цього.
я взагали звук писав на телефон

Ваш часовий пояс: GMT + 2 Години

Нова тема   Відповісти