Сніговик і Сніговий пес / The Snowman and the Snowdog (2012) 1080p Eng | Sub Ukr/Eng

Нові коментарі

Нова тема   Відповісти
Автор Повідомлення
Anonymous 







2019-12-20 01:25  
Сніговик і Сніговий пес / The Snowman and the Snowdog (2012) 1080p Eng | Sub Ukr/Eng

Сніговик і Сніговий пес / The Snowman and the Snowdog (2012) 1080p Eng | Sub Ukr/Eng


Жанр: мультфільм, короткометражний, пригодницький
Країна: Індонезія, Велика Британія, Фінляндія
Кінокомпанія: Sianel 4 Cymru (S4C), Snowman Enterprises, Lupus Films
Режисер: Гілері Одус (Hilary Audus)

Сюжет:
Мультфільм «Сніговик і Сніговий пес» створений у стилістиці і є продовженням класичного мультфільму «Сніговик», створеного у 1982 році за однойменною книгою Реймонда Бріґса. Новий фільм, як і його відомий попередник, був намальований від руки без застосування комп’ютерної графіки і розповідає ще одну чарівну різдвяну історію за участю давніх і нових героїв.

Тривалість: 00:23:48
Якість:

Відео:
кодек:
розмір кадру: 1920 x 1080
бітрейт: 5 932 кб/с

Аудіо # 1:
мова: англійська
переклад: оригінал
кодек: AC-3 2.0
бітрейт: 640 кб/с

Субтитри # 1: (Full, Студія Омікрон)
мова: українська
тип: програмні (м'які)
формат: *.srt

Субтитри # 2: (Full)
мова: англійська
тип: програмні (м'які)
формат: *.srt


Info
Код:
General
Unique ID                                : 238063961023385017918697476383663110297 (0xB319737CB1CBB969B273BCF999AEB899)
Complete name                            : The Snowman and the Snowdog (2012) 1080p [ENG] [Hurtom].
Format                                   :
Format version                           : Version 4
File size                                : 1.09 GiB
Duration                                 : 23 min 48 s
Overall bit rate                         : 6 572 kb/s
Movie name                               : Сніговик і Сніговий пес / The Snowman and the Snowdog (2012)
Encoded date                             : UTC 2019-12-18 09:22:04
Writing application                      : v20.0.0 ('I Am The Sun') 64-bit
Writing library                          : libebml v1.3.5 + v1.4.8
Cover                                    : Yes
Attachments                              : Cover.jpg

Video
ID                                       : 1
Format                                   : AVC
Format/Info                              : Advanced Video Codec
Format profile                           : [email protected]
Format settings                          : CABAC / 4 Ref Frames
Format settings, CABAC                   : Yes
Format settings, Reference frames        : 4 frames
Codec ID                                 : V_MPEG4/ISO/AVC
Duration                                 : 23 min 48 s
Bit rate                                 : 5 932 kb/s
Width                                    : 1 920 pixels
Height                                   : 1 080 pixels
Display aspect ratio                     : 16:9
Frame rate mode                          : Constant
Frame rate                               : 25.000 FPS
Color space                              : YUV
Chroma subsampling                       : 4:2:0
Bit depth                                : 8 bits
Scan type                                : Progressive
Bits/(Pixel*Frame)                       : 0.114
Stream size                              : 1 009 MiB (90%)
Title                                    : Сніговик і Сніговий пес / The Snowman and the Snowdog (2012)
Writing library                          : core 140 r2377 1ca7bb9
Encoding settings                        : cabac=1 / ref=4 / deblock=1:0:0 / analyse=0x3:0x133 / me=umh / subme=7 / psy=1 / psy_rd=1.00:0.00 / mixed_ref=1 / me_range=16 / chroma_me=1 / trellis=1 / 8x8dct=1 / cqm=0 / deadzone=21,11 / fast_pskip=0 / chroma_qp_offset=-2 / threads=12 / lookahead_threads=2 / sliced_threads=0 / nr=0 / decimate=1 / interlaced=0 / bluray_compat=0 / constrained_intra=0 / bframes=3 / b_pyramid=2 / b_adapt=2 / b_bias=0 / direct=3 / weightb=1 / open_gop=0 / weightp=2 / keyint=250 / keyint_min=25 / scenecut=40 / intra_refresh=0 / rc_lookahead=50 / rc=2pass / mbtree=1 / bitrate=5932 / ratetol=1.0 / qcomp=0.60 / qpmin=0 / qpmax=69 / qpstep=4 / cplxblur=20.0 / qblur=0.5 / ip_ratio=1.40 / aq=1:1.00
Language                                 : English
Default                                  : Yes
Forced                                   : No

Audio
ID                                       : 2
Format                                   : AC-3
Format/Info                              : Audio Coding 3
Commercial name                          : Dolby Digital
Codec ID                                 : A_AC3
Duration                                 : 23 min 48 s
Bit rate mode                            : Constant
Bit rate                                 : 640 kb/s
Channel(s)                               : 2 channels
Channel layout                           : L R
Sampling rate                            : 48.0 kHz
Frame rate                               : 31.250 FPS (1536 SPF)
Bit depth                                : 16 bits
Compression mode                         : Lossy
Stream size                              : 109 MiB (10%)
Title                                    : / 5.1 Ch / 640 kbps / Original
Language                                 : English
Service kind                             : Complete Main
Default                                  : Yes
Forced                                   : Yes

Text #1
ID                                       : 3
Format                                   : UTF-8
Codec ID                                 : S_TEXT/UTF8
Codec ID/Info                            : UTF-8 Plain Text
Duration                                 : 7 min 24 s
Bit rate                                 : 31 b/s
Count of elements                        : 27
Stream size                              : 1.71 KiB (0%)
Title                                    : Full, Студія Омікрон
Language                                 : Ukrainian
Default                                  : Yes
Forced                                   : No

Text #2
ID                                       : 4
Format                                   : UTF-8
Codec ID                                 : S_TEXT/UTF8
Codec ID/Info                            : UTF-8 Plain Text
Duration                                 : 7 min 54 s
Bit rate                                 : 21 b/s
Count of elements                        : 32
Stream size                              : 1.25 KiB (0%)
Title                                    : Full
Language                                 : English
Default                                  : No
Forced                                   : No

Menu
00:00:00.000                             : en:00:00:00.000
00:03:43.640                             : en:00:03:43.640
00:07:43.240                             : en:00:07:43.240
00:11:05.000                             : en:00:11:05.000
00:15:34.960                             : en:00:15:34.960
00:19:42.600                             : en:00:19:42.600
Світлини




Джерело: &
Особиста оцінка: 0 - не дивився


Авторський реліз (завантажувати можна без реєстрації)
 Трекер:    Зареєстрований   

Завантажити / скачати мультфільм українською



відео для новачків



 Зареєстрований:   2019-12-20 01:25
 Розмір:   1.09 GB 
 Оцінка мультфільму:   10/10 (Голосів: 4)
   
Ваш часовий пояс: GMT + 2 Години

Нова тема   Відповісти