Сніговик / The Snowman (1982) Remux 1080i Ukr/Eng | Sub Ukr/Eng

Нові коментарі

Нова тема   Відповісти
Автор Повідомлення
Anonymous 







2019-12-20 01:21  
Сніговик / The Snowman (1982) Remux 1080i Ukr/Eng | Sub Ukr/Eng

Сніговик / The Snowman (1982) Remux 1080i Ukr/Eng | Sub Ukr/Eng


Жанр: мультфільм, короткометражка, фентезі, пригодницький, сімейний
Країна: США
Кінокомпанія: Сноумен Ентерпрайзес / Snowman Enterprises
Режисер: Даян Джексон, Джимі Т. Муракамі / Dianne Jackson, Jimmy T. Murakami

Сюжет:
В мультфільмі розповідається про маленького хлопчика і містичного сніговика, якого він зліпив перед Різдвом, і про їхні неймовірні пригоди в Різдвяну Ніч.

Тривалість: 00:25:38
Якість:

Відео:
кодек:
розмір кадру: 1920 x 1080
бітрейт: 30 000 кб/с

Аудіо # 1:
мова: українська
переклад: багатоголосий закадровий | Омікрон
кодек: AC-3 2.0
бітрейт: 224 кб/с

Аудіо # 2:
мова: англійська
переклад: оригінал
кодек: PCM 2.0
бітрейт: 2306 кб/с

Субтитри # 1: (Forced)
мова: українська
тип: програмні (м'які)
формат: *.srt

Субтитри # 2: (Forced)
мова: англійська
тип: програмні (м'які)
формат: *.srt


Info
Код:
General
Unique ID                                : 82041190037535112914316461700581601329 (0x3DB88EF703C3A5701F368938F836B031)
Complete name                            : The Snowman (1982) Remux 1080i [UKR_ENG] [Hurtom].
Format                                   :
Format version                           : Version 4
File size                                : 5.83 GiB
Duration                                 : 26 min 9 s
Overall bit rate mode                    : Variable
Overall bit rate                         : 31.9 Mb/s
Movie name                               : Сніговик / The Snowman (1982)
Encoded date                             : UTC 2019-12-19 23:04:30
Writing application                      : v20.0.0 ('I Am The Sun') 64-bit
Writing library                          : libebml v1.3.5 + v1.4.8
Cover                                    : Yes
Attachments                              : Cover.jpg

Video
ID                                       : 1
Format                                   : AVC
Format/Info                              : Advanced Video Codec
Format profile                           : [email protected]
Format settings                          : CABAC / 4 Ref Frames
Format settings, CABAC                   : Yes
Format settings, Reference frames        : 4 frames
Codec ID                                 : V_MPEG4/ISO/AVC
Duration                                 : 25 min 38 s
Bit rate mode                            : Variable
Bit rate                                 : 30.0 Mb/s
Maximum bit rate                         : 35.0 Mb/s
Width                                    : 1 920 pixels
Height                                   : 1 080 pixels
Display aspect ratio                     : 16:9
Frame rate mode                          : Constant
Frame rate                               : 25.000 FPS
Standard                                 : PAL
Color space                              : YUV
Chroma subsampling                       : 4:2:0
Bit depth                                : 8 bits
Scan type                                : MBAFF
Bits/(Pixel*Frame)                       : 0.579
Stream size                              : 5.37 GiB (92%)
Title                                    : Сніговик / The Snowman (1982)
Default                                  : Yes
Forced                                   : No
Color range                              : Limited
Color primaries                          : BT.709
Transfer characteristics                 : BT.709
Matrix coefficients                      : BT.709

Audio #1
ID                                       : 2
Format                                   : AC-3
Format/Info                              : Audio Coding 3
Commercial name                          : Dolby Digital
Codec ID                                 : A_AC3
Duration                                 : 26 min 9 s
Bit rate mode                            : Constant
Bit rate                                 : 224 kb/s
Channel(s)                               : 2 channels
Channel layout                           : L R
Sampling rate                            : 48.0 kHz
Frame rate                               : 31.250 FPS (1536 SPF)
Bit depth                                : 16 bits
Compression mode                         : Lossy
Stream size                              : 41.9 MiB (1%)
Title                                    : / 2.0 Ch / 224 kbps / БЗ / Omikron
Language                                 : Ukrainian
Service kind                             : Complete Main
Default                                  : Yes
Forced                                   : Yes

Audio #2
ID                                       : 3
Format                                   : PCM
Format settings                          : Little / Signed
Codec ID                                 : A_PCM/INT/LIT
Duration                                 : 25 min 38 s
Bit rate mode                            : Constant
Bit rate                                 : 2 304 kb/s
Channel(s)                               : 2 channels
Sampling rate                            : 48.0 kHz
Frame rate                               : 200.000 FPS (240 SPF)
Bit depth                                : 24 bits
Stream size                              : 422 MiB (7%)
Title                                    : PCM / 2.0 Ch / 2304 kbps / Original
Language                                 : English
Default                                  : No
Forced                                   : No

Text #1
ID                                       : 4
Format                                   : UTF-8
Codec ID                                 : S_TEXT/UTF8
Codec ID/Info                            : UTF-8 Plain Text
Duration                                 : 18 min 14 s
Bit rate                                 : 11 b/s
Count of elements                        : 25
Stream size                              : 1.50 KiB (0%)
Title                                    : Forced
Language                                 : Ukrainian
Default                                  : Yes
Forced                                   : Yes

Text #2
ID                                       : 5
Format                                   : UTF-8
Codec ID                                 : S_TEXT/UTF8
Codec ID/Info                            : UTF-8 Plain Text
Duration                                 : 18 min 14 s
Bit rate                                 : 8 b/s
Count of elements                        : 25
Stream size                              : 1.16 KiB (0%)
Title                                    : Forced
Language                                 : English
Default                                  : No
Forced                                   : No
Світлини




Джерело: &
Особиста оцінка: 0 - не дивився


Авторський реліз (завантажувати можна без реєстрації)
 Трекер:    Зареєстрований   

Завантажити / скачати мультфільм українською



відео для новачків



 Зареєстрований:   2019-12-20 01:21
 Розмір:   5.83 GB 
 Оцінка мультфільму:   10/10 (Голосів: 4)
   
ovod 
Свій


З нами з: 09.02.09
Востаннє: 04.03.21
Повідомлень: 145

2019-12-20 10:04  
25 хв мультика 6 Gb??? Його що під мікроскопом дивитись???
Anonymous 







2019-12-20 11:36  
ovod
Нічого, що це Remux?

Ваш часовий пояс: GMT + 2 Години

Нова тема   Відповісти