Єті / Abominable (2019) UHD 1080p H.265 Ukr/Eng | Sub Eng

Нові коментарі

Нова тема   Відповісти
Автор Повідомлення
Anonymous 







2019-12-20 00:26  
Єті / Abominable (2019) UHD 1080p H.265 Ukr/Eng | Sub Eng

Єті / Abominable (2019) UHD 1080p H.265 Ukr/Eng | Sub Eng


Жанр: комедія, мультфільм, пригоди, сімейний, фентезі
Країна: Китай, США
Кінокомпанія: DreamWorks Animation, Pearl Studio
Режисер: Джілл Калтон, Тодд Вилдерман
Актори: Хлоя Беннет, Альберт Тсаі, Тензінг Норгай Трейнор, Едді Іззард, Сара Полсон, Цай Чінь, Джеймс Хонг

Сюжет:
Коли дівчинка-тінейджер Йі зустрічає молодого Єті на даху свого висотного будинку в Шанхаї, вона та її друзі-бунтарі Чін і Пенг називають його Еверест і відправляються в епічний квест, щоб возз'єднати чарівну істоту з його родиною, яка живе на найвищій горі світу.

Тривалість: 01:37:13
Якість:

Відео:
кодек: H.265 (HEVC)
розмір кадру: 1920 x 1038
бітрейт: 5 774 кб/с
бітова глибина: 10 біт

Увага! Перед завантаженням переконайтесь, що ваш пристрій відтворення (та/або ПЗ) підтримує H.265 (HEVC)

Аудіо # 1:
мова: українська
переклад: професійний дубльований | Студія LeDoyen
кодек: AC-3 2.0
бітрейт: 192 кб/с

Аудіо # 2:
мова: англійська
переклад: оригінал
кодек: AC-3 5.1
бітрейт: 640 кб/с

Субтитри # 1-2: (Full, SDH)
мова: англійська
тип: програмні (м'які)
формат: *.srt


Info
Код:
General
Unique ID                                : 86535430916203830190812743655460955918 (0x411A1E25DC25B170CEDC1E04BF2BE70E)
Complete name                            : Abominable (2019) UHD 1080p H.265 [UKR_ENG] [Hurtom].
Format                                   :
Format version                           : Version 4
File size                                : 4.49 GiB
Duration                                 : 1 h 37 min
Overall bit rate                         : 6 608 kb/s
Movie name                               : Єті / Abominable (2019)
Encoded date                             : UTC 2019-12-19 22:20:11
Writing application                      : v20.0.0 ('I Am The Sun') 64-bit
Writing library                          : libebml v1.3.5 + v1.4.8
Cover                                    : Yes
Attachments                              : cover.jpg

Video
ID                                       : 1
Format                                   : HEVC
Format/Info                              : High Efficiency Video Coding
Format profile                           : Main [email protected]@High
Codec ID                                 : V_MPEGH/ISO/HEVC
Duration                                 : 1 h 37 min
Bit rate                                 : 5 774 kb/s
Width                                    : 1 920 pixels
Height                                   : 1 038 pixels
Display aspect ratio                     : 1.85:1
Frame rate mode                          : Constant
Frame rate                               : 23.976 (24000/1001) FPS
Color space                              : YUV
Chroma subsampling                       : 4:2:0
Bit depth                                : 10 bits
Bits/(Pixel*Frame)                       : 0.121
Stream size                              : 3.92 GiB (87%)
Title                                    : Єті / Abominable (2019)
Writing library                          : x265 3.2+5-354901970679:[Windows][clang 8.0.1][64 bit] 10bit
Encoding settings                        : cpuid=1049583 / frame-threads=5 / numa-pools=4 / wpp / no-pmode / no-pme / no-psnr / no-ssim / log-level=3 / input-csp=1 / input-res=1920x1038 / interlace=0 / total-frames=0 / level-idc=41 / high-tier=1 / uhd-bd=0 / ref=4 / allow-non-conformance / no-repeat-headers / annexb / no-aud / no-hrd / info / hash=0 / no-temporal-layers / open-gop / min-keyint=24 / keyint=240 / gop-lookahead=0 / bframes=16 / b-adapt=2 / b-pyramid / bframe-bias=0 / rc-lookahead=40 / lookahead-slices=6 / scenecut=40 / radl=0 / no-splice / no-intra-refresh / ctu=32 / min-cu-size=8 / no-rect / no-amp / max-tu-size=32 / tu-inter-depth=4 / tu-intra-depth=4 / limit-tu=1 / rdoq-level=1 / dynamic-rd=0.00 / no-ssim-rd / signhide / no-tskip / nr-intra=0 / nr-inter=0 / no-constrained-intra / no-strong-intra-smoothing / max-merge=5 / limit-refs=1 / no-limit-modes / me=3 / subme=7 / merange=57 / temporal-mvp / no-frame-dup / no-hme / weightp / no-weightb / no-analyze-src-pics / deblock=-3:-3 / no-sao / no-sao-non-deblock / rd=3 / selective-sao=0 / early-skip / no-rskip / no-fast-intra / no-tskip-fast / no-cu-lossless / b-intra / no-splitrd-skip / rdpenalty=0 / psy-rd=2.00 / psy-rdoq=1.00 / no-rd-refine / no-lossless / cbqpoffs=0 / crqpoffs=0 / rc=crf / crf=20.0 / qcomp=0.60 / qpstep=4 / stats-write=0 / stats-read=0 / vbv-maxrate=50000 / vbv-bufsize=50000 / vbv-init=0.9 / crf-max=0.0 / crf-min=0.0 / ipratio=1.40 / pbratio=1.30 / aq-mode=3 / aq-strength=1.00 / no-cutree / zone-count=0 / no-strict-cbr / qg-size=32 / no-rc-grain / qpmax=69 / qpmin=0 / no-const-vbv / sar=1 / overscan=0 / videoformat=5 / range=0 / colorprim=1 / transfer=1 / colormatrix=1 / chromaloc=0 / display-window=0 / cll=0,0 / min-luma=0 / max-luma=1023 / log2-max-poc-lsb=8 / vui-timing-info / vui-hrd-info / slices=1 / no-opt-qp-pps / no-opt-ref-list-length-pps / no-multi-pass-opt-rps / scenecut-bias=0.05 / no-opt-cu-delta-qp / no-aq-motion / no-hdr / no-hdr-opt / no-dhdr10-opt / no-idr-recovery-sei / analysis-reuse-level=5 / scale-factor=0 / refine-intra=0 / refine-inter=0 / refine-mv=1 / refine-ctu-distortion=0 / no-limit-sao / ctu-info=0 / no-lowpass-dct / refine-analysis-type=0 / copy-pic=1 / max-ausize-factor=1.0 / no-dynamic-refine / no-single-sei / no-hevc-aq / no-svt / no-field / qp-adaptation-range=1.00
Language                                 : English
Default                                  : Yes
Forced                                   : No
Color range                              : Limited
Color primaries                          : BT.709
Transfer characteristics                 : BT.709
Matrix coefficients                      : BT.709

Audio #1
ID                                       : 2
Format                                   : AC-3
Format/Info                              : Audio Coding 3
Commercial name                          : Dolby Digital
Codec ID                                 : A_AC3
Duration                                 : 1 h 37 min
Bit rate mode                            : Constant
Bit rate                                 : 192 kb/s
Channel(s)                               : 2 channels
Channel layout                           : L R
Sampling rate                            : 48.0 kHz
Frame rate                               : 31.250 FPS (1536 SPF)
Bit depth                                : 16 bits
Compression mode                         : Lossy
Delay relative to video                  : 1 s 0 ms
Stream size                              : 134 MiB (3%)
Title                                    : / 2.0 Ch / 192 kbps / ПД / Студія LeDoyen
Language                                 : Ukrainian
Service kind                             : Complete Main
Default                                  : Yes
Forced                                   : Yes

Audio #2
ID                                       : 3
Format                                   : AC-3
Format/Info                              : Audio Coding 3
Commercial name                          : Dolby Digital
Codec ID                                 : A_AC3
Duration                                 : 1 h 37 min
Bit rate mode                            : Constant
Bit rate                                 : 640 kb/s
Channel(s)                               : 6 channels
Channel layout                           : L R C LFE Ls Rs
Sampling rate                            : 48.0 kHz
Frame rate                               : 31.250 FPS (1536 SPF)
Bit depth                                : 16 bits
Compression mode                         : Lossy
Delay relative to video                  : 1 s 0 ms
Stream size                              : 445 MiB (10%)
Title                                    : / 5.1 Ch / 640 kbps / Original
Language                                 : English
Service kind                             : Complete Main
Default                                  : No
Forced                                   : No

Text #1
ID                                       : 4
Format                                   : UTF-8
Codec ID                                 : S_TEXT/UTF8
Codec ID/Info                            : UTF-8 Plain Text
Duration                                 : 1 h 25 min
Bit rate                                 : 46 b/s
Count of elements                        : 1175
Stream size                              : 29.0 KiB (0%)
Title                                    : Full
Language                                 : English
Default                                  : No
Forced                                   : No

Text #2
ID                                       : 5
Format                                   : UTF-8
Codec ID                                 : S_TEXT/UTF8
Codec ID/Info                            : UTF-8 Plain Text
Duration                                 : 1 h 35 min
Bit rate                                 : 53 b/s
Count of elements                        : 1545
Stream size                              : 37.5 KiB (0%)
Title                                    : SDH
Language                                 : English
Default                                  : No
Forced                                   : No

Menu
00:00:00.000                             : en:Chapter 01
00:04:11.835                             : en:Chapter 02
00:09:10.884                             : en:Chapter 03
00:13:42.238                             : en:Chapter 04
00:16:13.598                             : en:Chapter 05
00:21:34.752                             : en:Chapter 06
00:25:02.459                             : en:Chapter 07
00:29:30.435                             : en:Chapter 08
00:33:57.452                             : en:Chapter 09
00:36:43.785                             : en:Chapter 10
00:41:53.010                             : en:Chapter 11
00:46:30.705                             : en:Chapter 12
00:50:42.331                             : en:Chapter 13
00:56:31.555                             : en:Chapter 14
01:01:40.530                             : en:Chapter 15
01:06:33.198                             : en:Chapter 16
01:11:44.425                             : en:Chapter 17
01:15:26.355                             : en:Chapter 18
01:20:41.545                             : en:Chapter 19
01:26:44.408                             : en:Chapter 20
Світлини




Джерело: &
Особиста оцінка: 0 - не дивився


 Трекер:    Зареєстрований   

Завантажити / скачати мультфільм українською



відео для новачків



 Зареєстрований:   2019-12-20 00:26
 Розмір:   4.49 GB 
 Оцінка мультфільму:   9.9/10 (Голосів: 11)
   
Інші релізи
   Єті / Abominable (2019) AVC Ukr/Eng | Sub Eng 11FrYkT  117 / 1   2.27 GB   2019-12-11 11:29 
   Єті / Abominable (2019) 720p Ukr/Eng | Sub Eng 11FrYkT  58 / 0   4.3 GB   2019-12-09 11:10 
   Єті / Abominable (2019) 1080p Ukr/Eng | Sub Eng staf777  73 / 3   10.47 GB   2019-12-09 02:53 
   Єті / Abominable (2019) Remux 1080p Ukr/Eng | Sub Eng antik_2008  26 / 0   21.09 GB   2019-12-08 22:52 
   Єті / Abominable (2019) antik_2008  161 / 3   1.47 GB   2019-12-08 19:18 
   Єті / Abominable (2019) UHD Remux 4K 2160p HDR H.265 Ukr/Eng | Sub Eng antik_2008  12 / 0   52.29 GB   2019-12-08 00:34 
Ваш часовий пояс: GMT + 2 Години

Нова тема   Відповісти