Дівчинка з сірниками / Das Mädchen mit den Schwefelhölzern (2013) 720p Ukr/Ger

Нові коментарі

Нова тема   Відповісти
Автор Повідомлення
Anonymous 







2019-12-19 01:11  
Дівчинка з сірниками / Das Mädchen mit den Schwefelhölzern (2013) 720p Ukr/Ger

Дівчинка з сірниками / Das Mädchen mit den Schwefelhölzern (2013) 720p Ukr/Ger


Жанр: сімейний, казка
Країна: Німеччина



Кінокомпанія: Askania Media Filmproduktion GmbH, Rundfunk Berlin-Brandenburg (RBB), Saarländischer Rundfunk (SR)
Режисер: Уве Янсон
Актори: Леа Мюллер, Максиміліан Еренрайх, Ніна Кунцендорф, Олівер Коритке, Фердінанд Лєман

Сюжет:
Юна Інга живе в сирітському притулку разом зі своїм маленьким другом Емілем. Притулком управляє жорстока пані Ляндфрід, яка змушує дітей працювати, щоб забезпечити їй небідне життя. Напередодні Різдва Інга разом з іншими дітьми виходить на міську площу, щоб продавати сірники, але радісні городяни в передчутті свята проходять повз замерзлих дітей. І ті гроші, що Інзі вдалося заробити, вона віддає Емілю, щоб хлопчика не покарали. Залишившись на нічній площі, дівчинка з сірниками продовжує чекати, поки хто-небудь не зглянеться над нею і не купить її товар. Зневірившись, дівчинка заходить у будинок, де колись жила зі своїми батьками, і щоб хоч якось зігрітися запалює сірник...


Тривалість: 00:58:31
Якість:
Відео:
кодек:
розмір кадру: 1280 х 720
бітрейт: 2745 кб/с

Аудіо # 1:
мова: українська
переклад: професійний дубльований
кодек: 2.0
бітрейт: 192 кб/с

Аудіо # 2:
мова: німецька
переклад: оригінал
кодек: 2.0
бітрейт: 192 кб/с

Джерело озвучення:

Звук взято з релізу
Info
Код:
General
Unique ID                                : 316231673139951394134309837901499979883 (0xEDE8013EEC7DD2A0E4F9B2EB9873D86B)
Complete name                            : Das Mädchen mit den Schwefelhölzern (2013) 720p [Ukr_Ger] [Hurtom].
Format                                   :
Format version                           : Version 4
File size                                : 1.28 GiB
Duration                                 : 58 min 31 s
Overall bit rate                         : 3 132 kb/s
Movie name                               : Дівчинка з сірниками (2013)
Encoded date                             : UTC 2019-12-18 21:15:54
Writing application                      : v30.1.0 ('Forever And More') 64-bit
Writing library                          : libebml v1.3.6 + v1.4.9
Cover                                    : Yes
Attachments                              : cover.jpg

Video
ID                                       : 1
Format                                   : AVC
Format/Info                              : Advanced Video Codec
Format profile                           : [email protected]
Format settings                          : CABAC / 5 Ref Frames
Format settings, CABAC                   : Yes
Format settings, ReFrames                : 5 frames
Codec ID                                 : V_MPEG4/ISO/AVC
Duration                                 : 58 min 31 s
Bit rate                                 : 2 745 kb/s
Width                                    : 1 280 pixels
Height                                   : 720 pixels
Display aspect ratio                     : 16:9
Frame rate mode                          : Constant
Frame rate                               : 25.000 FPS
Color space                              : YUV
Chroma subsampling                       : 4:2:0
Bit depth                                : 8 bits
Scan type                                : Progressive
Bits/(Pixel*Frame)                       : 0.119
Stream size                              : 1.12 GiB (88%)
Writing library                          : core 140 r2377 1ca7bb9
Encoding settings                        : cabac=1 / ref=5 / deblock=1:-2:-2 / analyse=0x3:0x113 / me=umh / subme=8 / psy=1 / psy_rd=1.00:0.15 / mixed_ref=1 / me_range=16 / chroma_me=1 / trellis=1 / 8x8dct=1 / cqm=0 / deadzone=21,11 / fast_pskip=1 / chroma_qp_offset=-3 / threads=12 / lookahead_threads=2 / sliced_threads=0 / nr=0 / decimate=1 / interlaced=0 / bluray_compat=0 / constrained_intra=0 / bframes=3 / b_pyramid=2 / b_adapt=2 / b_bias=0 / direct=3 / weightb=1 / open_gop=0 / weightp=2 / keyint=250 / keyint_min=24 / scenecut=40 / intra_refresh=0 / rc_lookahead=50 / rc=crf / mbtree=1 / crf=20.0 / qcomp=0.60 / qpmin=0 / qpmax=69 / qpstep=4 / ip_ratio=1.40 / aq=1:1.00
Language                                 : German
Default                                  : Yes
Forced                                   : No

Audio #1
ID                                       : 2
Format                                   : AC-3
Format/Info                              : Audio Coding 3
Commercial name                          : Dolby Digital
Codec ID                                 : A_AC3
Duration                                 : 58 min 31 s
Bit rate mode                            : Constant
Bit rate                                 : 192 kb/s
Channel(s)                               : 2 channels
Channel layout                           : L R
Sampling rate                            : 48.0 kHz
Frame rate                               : 31.250 FPS (1536 SPF)
Bit depth                                : 16 bits
Compression mode                         : Lossy
Stream size                              : 80.4 MiB (6%)
Language                                 : Ukrainian
Service kind                             : Complete Main
Default                                  : Yes
Forced                                   : Yes

Audio #2
ID                                       : 3
Format                                   : AC-3
Format/Info                              : Audio Coding 3
Commercial name                          : Dolby Digital
Codec ID                                 : A_AC3
Duration                                 : 58 min 31 s
Bit rate mode                            : Constant
Bit rate                                 : 192 kb/s
Channel(s)                               : 2 channels
Channel layout                           : L R
Sampling rate                            : 48.0 kHz
Frame rate                               : 31.250 FPS (1536 SPF)
Bit depth                                : 16 bits
Compression mode                         : Lossy
Stream size                              : 80.4 MiB (6%)
Language                                 : German
Service kind                             : Complete Main
Default                                  : No
Forced                                   : No

Скріншоти





Джерело:


 Трекер:    Зареєстрований   

Завантажити / скачати фільм українською



відео для новачків



 Зареєстрований:   2019-12-19 01:11
 Розмір:   1.28 GB 
 Оцінка фільму:   9.9/10 (Голосів: 12)
   
Інші релізи
Ваш часовий пояс: GMT + 2 Години

Нова тема   Відповісти