Король Дроздобород / König Drosselbart (2008) 720p Ukr/Ger

Нові коментарі

Нова тема   Відповісти
Автор Повідомлення
Anonymous 







2019-12-18 23:30  
Король Дроздобород / König Drosselbart (2008) 720p Ukr/Ger

Король Дроздобород / König Drosselbart (2008) 720p Ukr/Ger


Жанр: сімейний, казка, романтичний
Країна: Німеччина



Кінокомпанія: Hessischer Rundfunk (HR), Kinderfilm
Режисер: Сібіла Тафель
Актори: Ясмін Швірс, Кен Дукен, Феліцітас Волль, Хуберт Мульцер, Артур Браус, Маріза Леоні Бах, Тімо Якобс, Мануель Кортез

Сюжет:
«Король Дроздобород» - саме так Ізабелла насміхається над принцем Річардом. Її батько хоче, щоб вона вибрала собі нареченого, але горда і норовлива принцеса висміює всіх кавалерів, яких їй пропонують. Щоб покарати дочку, батько вирішує видати її заміж за першого-ліпшого чоловіка, який увійде в замок.


Тривалість: 00:58:34
Якість:
Відео:
кодек:
розмір кадру: 1280 х 720
бітрейт: 3066 кб/с

Аудіо # 1:
мова: українська
переклад: багатоголосий закадровий
кодек: 2.0
бітрейт: 192 кб/с

Аудіо # 2:
мова: німецька
переклад: оригінал
кодек: 5.1
бітрейт: 384 кб/с

Джерело озвучення:

За запис звуку з ТБ дякуємо пану РОМЕО
Звук взято з релізу
Info
Код:
General
Unique ID                                : 195677522598950435950797396417134639568 (0x93361EB9BDB2BCCDC77E441B6972B9D0)
Complete name                            : König Drosselbart (2008) 720p [Ukr_Ger] [Hurtom].
Format                                   :
Format version                           : Version 4
File size                                : 1.49 GiB
Duration                                 : 58 min 34 s
Overall bit rate                         : 3 641 kb/s
Movie name                               : Король Дроздобород (2008)
Encoded date                             : UTC 2019-12-18 19:55:53
Writing application                      : v30.1.0 ('Forever And More') 64-bit
Writing library                          : libebml v1.3.6 + v1.4.9
Cover                                    : Yes
Attachments                              : cover.jpg

Video
ID                                       : 1
Format                                   : AVC
Format/Info                              : Advanced Video Codec
Format profile                           : [email protected]
Format settings                          : CABAC / 5 Ref Frames
Format settings, CABAC                   : Yes
Format settings, ReFrames                : 5 frames
Codec ID                                 : V_MPEG4/ISO/AVC
Duration                                 : 58 min 30 s
Bit rate                                 : 3 066 kb/s
Width                                    : 1 280 pixels
Height                                   : 720 pixels
Display aspect ratio                     : 16:9
Frame rate mode                          : Constant
Frame rate                               : 25.000 FPS
Color space                              : YUV
Chroma subsampling                       : 4:2:0
Bit depth                                : 8 bits
Scan type                                : Progressive
Bits/(Pixel*Frame)                       : 0.133
Stream size                              : 1.25 GiB (84%)
Writing library                          : core 128 r2216 198a7ea
Encoding settings                        : cabac=1 / ref=5 / deblock=1:0:0 / analyse=0x3:0x113 / me=umh / subme=7 / psy=1 / psy_rd=1.00:0.00 / mixed_ref=1 / me_range=16 / chroma_me=1 / trellis=1 / 8x8dct=1 / cqm=0 / deadzone=21,11 / fast_pskip=0 / chroma_qp_offset=-2 / threads=3 / lookahead_threads=1 / sliced_threads=0 / nr=0 / decimate=1 / interlaced=0 / bluray_compat=0 / constrained_intra=0 / bframes=3 / b_pyramid=2 / b_adapt=1 / b_bias=0 / direct=1 / weightb=1 / open_gop=0 / weightp=2 / keyint=250 / keyint_min=25 / scenecut=40 / intra_refresh=0 / rc_lookahead=40 / rc=crf / mbtree=1 / crf=20.0 / qcomp=0.60 / qpmin=0 / qpmax=69 / qpstep=4 / ip_ratio=1.40 / aq=1:1.00
Language                                 : German
Default                                  : Yes
Forced                                   : No

Audio #1
ID                                       : 2
Format                                   : AC-3
Format/Info                              : Audio Coding 3
Commercial name                          : Dolby Digital
Codec ID                                 : A_AC3
Duration                                 : 58 min 34 s
Bit rate mode                            : Constant
Bit rate                                 : 192 kb/s
Channel(s)                               : 2 channels
Channel layout                           : L R
Sampling rate                            : 48.0 kHz
Frame rate                               : 31.250 FPS (1536 SPF)
Bit depth                                : 16 bits
Compression mode                         : Lossy
Stream size                              : 80.4 MiB (5%)
Language                                 : Ukrainian
Service kind                             : Complete Main
Default                                  : Yes
Forced                                   : Yes

Audio #2
ID                                       : 3
Format                                   : AC-3
Format/Info                              : Audio Coding 3
Commercial name                          : Dolby Digital
Codec ID                                 : A_AC3
Duration                                 : 58 min 30 s
Bit rate mode                            : Constant
Bit rate                                 : 384 kb/s
Channel(s)                               : 6 channels
Channel layout                           : L R C LFE Ls Rs
Sampling rate                            : 48.0 kHz
Frame rate                               : 31.250 FPS (1536 SPF)
Bit depth                                : 16 bits
Compression mode                         : Lossy
Stream size                              : 161 MiB (11%)
Language                                 : German
Service kind                             : Complete Main
Default                                  : No
Forced                                   : No

Скріншоти





Джерело:


 Трекер:    Зареєстрований   

Завантажити / скачати фільм українською



відео для новачків



 Зареєстрований:   2019-12-18 23:30
 Розмір:   1.49 GB 
 Оцінка фільму:   10/10 (Голосів: 10)
   
Інші релізи
Ваш часовий пояс: GMT + 2 Години

Нова тема   Відповісти