Таємниці райських схилів / Paradise Hills (2019) 1080р Ukr/Eng | Sub Eng

Нові коментарі

Нова тема   Відповісти
Автор Повідомлення
Anonymous 







2019-12-17 14:19  
Таємниці райських схилів / Paradise Hills (2019) 1080р Ukr/Eng | Sub Eng

Таємниці райських схилів / Paradise Hills (2019) 1080р Ukr/Eng | Sub Eng
Альтернативний постер:


«Дивний новий світ»



Жанр: трилер, фантастика, фентезі
Країна: Іспанія



Кінокомпанія: Nostromo Pictures, Colina Paraiso AIE, Radio Televisión Española (RTVE)
Режисер: Еліс Веддінгтон
Актори: Емма Робертс, Даніель МакДональд, Аквафіна, Мілла Йовович, Ейса Гонсалес, Арно Валуа

Сюжет:
За сюжетом головна героїня потрапить в незвичайний пансіонат на тропічному острові, куди батьки відправляють своїх дівчаток на перевиховання. Все тут виглядає ідеально, але незабаром дівчина здогадається, що за уявною ідилією стоїть справжній кошмар.


Тривалість: 01:34:37
Якість: 1080p

Відео:
кодек:
розмір кадру: 1920x960
бітрейт: 11287 кб/с

Аудіо # 1:
мова: українська
переклад: професійний дубльований
кодек: 5.1
бітрейт: 384 кб/с

Аудіо # 2:
мова: англійська
переклад: оригінал
кодек: 5.1
бітрейт: 640 кб/с

Субтитри (Full, SDH):
мова: англійська
тип: програмні (м'які)
формат: *.srt
Info
Код:
General
Complete name                            : Paradise Hills (2019) 1080p [ukr_eng] [ViDeO_Hurtom].
Format                                   :
Format version                           : Version 4
File size                                : 8.01 GiB
Duration                                 : 1 h 34 min
Overall bit rate                         : 12.1 Mb/s
Encoded date                             : UTC 2019-12-24 16:26:37
Writing application                      : v30.1.0 ('Forever And More') 64-bit
Writing library                          : libebml v1.3.6 + v1.4.9
Cover                                    : Yes
Attachments                              : cover.jpg

Video
ID                                       : 1
Format                                   : AVC
Format/Info                              : Advanced Video Codec
Format profile                           : [email protected]
Format settings                          : CABAC / 4 Ref Frames
Format settings, CABAC                   : Yes
Format settings, RefFrames               : 4 frames
Codec ID                                 : V_MPEG4/ISO/AVC
Duration                                 : 1 h 34 min
Bit rate                                 : 11.3 Mb/s
Width                                    : 1 920 pixels
Height                                   : 960 pixels
Display aspect ratio                     : 2.000
Frame rate mode                          : Constant
Frame rate                               : 23.976 (24000/1001) FPS
Color space                              : YUV
Chroma subsampling                       : 4:2:0
Bit depth                                : 8 bits
Scan type                                : Progressive
Bits/(Pixel*Frame)                       : 0.255
Stream size                              : 7.45 GiB (93%)
Title                                    : Encoded by seleZen
Writing library                          : core 148 r2705kMod 3f5ed56
Encoding settings                        : cabac=1 / ref=4 / deblock=1:-2:-2 / analyse=0x3:0x113 / me=umh / subme=11 / psy=1 / fade_compensate=0.00 / psy_rd=1.00:0.00 / mixed_ref=1 / me_range=32 / chroma_me=1 / trellis=2 / 8x8dct=1 / cqm=0 / deadzone=21,11 / fast_pskip=0 / chroma_qp_offset=-2 / threads=24 / lookahead_threads=6 / sliced_threads=0 / nr=0 / decimate=0 / interlaced=0 / bluray_compat=0 / constrained_intra=0 / fgo=0 / bframes=10 / b_pyramid=2 / b_adapt=2 / b_bias=0 / direct=3 / weightb=1 / open_gop=0 / weightp=2 / keyint=240 / keyint_min=23 / scenecut=40 / intra_refresh=0 / rc_lookahead=50 / rc=2pass / mbtree=0 / bitrate=11287 / ratetol=1.0 / qcomp=0.60 / qpmin=0 / qpmax=51 / qpstep=4 / cplxblur=20.0 / qblur=0.5 / vbv_maxrate=50000 / vbv_bufsize=62500 / nal_hrd=none / filler=0 / ip_ratio=1.40 / pb_ratio=1.30 / aq=3:0.80
Language                                 : English
Default                                  : Yes
Forced                                   : No

Audio #1
ID                                       : 2
Format                                   : AC-3
Format/Info                              : Audio Coding 3
Commercial name                          : Dolby Digital
Codec ID                                 : A_AC3
Duration                                 : 1 h 34 min
Bit rate mode                            : Constant
Bit rate                                 : 192 kb/s
Channel(s)                               : 2 channels
Channel layout                           : L R
Sampling rate                            : 48.0 kHz
Frame rate                               : 31.250 FPS (1536 SPF)
Bit depth                                : 16 bits
Compression mode                         : Lossy
Stream size                              : 130 MiB (2%)
Title                                    : , 2 ch, 192 Кбт/с
Language                                 : Ukrainian
Service kind                             : Complete Main
Default                                  : Yes
Forced                                   : No

Audio #2
ID                                       : 3
Format                                   : AC-3
Format/Info                              : Audio Coding 3
Commercial name                          : Dolby Digital
Codec ID                                 : A_AC3
Duration                                 : 1 h 34 min
Bit rate mode                            : Constant
Bit rate                                 : 640 kb/s
Channel(s)                               : 6 channels
Channel layout                           : L R C LFE Ls Rs
Sampling rate                            : 48.0 kHz
Frame rate                               : 31.250 FPS (1536 SPF)
Bit depth                                : 16 bits
Compression mode                         : Lossy
Stream size                              : 433 MiB (5%)
Title                                    : , 6 ch, 640 Кбт/с
Language                                 : English
Service kind                             : Complete Main
Default                                  : No
Forced                                   : No

Text #1
ID                                       : 4
Format                                   : UTF-8
Codec ID                                 : S_TEXT/UTF8
Codec ID/Info                            : UTF-8 Plain Text
Duration                                 : 1 h 28 min
Bit rate                                 : 41 b/s
Count of elements                        : 993
Stream size                              : 26.5 KiB (0%)
Title                                    : Full
Language                                 : English
Default                                  : No
Forced                                   : No

Text #2
ID                                       : 5
Format                                   : UTF-8
Codec ID                                 : S_TEXT/UTF8
Codec ID/Info                            : UTF-8 Plain Text
Duration                                 : 1 h 28 min
Bit rate                                 : 50 b/s
Count of elements                        : 1175
Stream size                              : 32.7 KiB (0%)
Title                                    : SDH
Language                                 : English
Default                                  : No
Forced                                   : No

Menu
00:00:00.000                             : en:Глава 01
00:08:12.117                             : en:Глава 02
00:15:35.017                             : en:Глава 03
00:24:04.610                             : en:Глава 04
00:31:03.028                             : en:Глава 05
00:39:12.600                             : en:Глава 06
00:46:48.806                             : en:Глава 07
00:56:15.706                             : en:Глава 08
01:03:43.945                             : en:Глава 09
01:09:15.568                             : en:Глава 10
01:16:38.677                             : en:Глава 11
01:25:29.958                             : en:Глава 12
Скріншоти




Джерело:
Особиста оцінка: 7 - моїй подрузі не сподобалося


 Трекер:    Зареєстрований   

Завантажити / скачати фільм українською



відео для новачків



 Зареєстрований:   2020-01-18 00:14
 Розмір:   8.13 GB 
 Оцінка фільму:   8.8/10 (Голосів: 21)
   
Anonymous 







2019-12-24 20:48  
Торент файл оновлено. Заміна відео на 
vovang6 
Поважний учасник


З нами з: 27.08.12
Востаннє: 21.09.20
Повідомлень: 221

2019-12-26 10:21  
Шкода, що витратив час на це ла*но...
rubyrud1 
Новенький


З нами з: 24.04.18
Востаннє: 21.09.20
Повідомлень: 22

2019-12-28 01:29  
Фільм насичений яскравими кольорами та стилем, стилістика острова, суконь героїнь... наче яскрава гарна обгортка від цукерки, але по суті пустопорожнє підліткове фентезі про те як "важко" мажористим дівчатам живеться))) Все картонне, порожнє і тупеньке)
"в мене помер батько і змушують виходити заміж, а мати через це відправила мене на райський острів...((! " яка трагічна історія))
Серйозно, все просто картонно)
Я подумала що це щось типу "від пацанки до панянки", щось психологічне... а виявилося що дівчат туди відправляють якщо вони не хочуть виходити заміж або якщо вони товсті і не хочуть худнути, та ще й на додачу це підліткове фентезі для дівчаток XD
Погане фентезі))

0mage0 
VIP


З нами з: 06.10.15
Востаннє: 21.09.20
Повідомлень: 696

2020-01-06 12:28  
Загалом дивитися можна. Хоча є одне маленьке нестикуваннячко, як на мене.

Міла Йовович, людина-троянда наче як була "серцем" цього "санаторію", але попри її смерть, весілля з головною героїнею (точніше, з копією) таки відбулося.
Ну і незрозуміло, чи знали замовники (наприклад, це мама одної з дівчат), в який саме спосіб "пацієнтів" будуть виправляти. Певно, що ні, хоча рівень божевілля у фільмі високий, може й так...

Anonymous 







2020-01-18 00:15  
Торент файл оновлено. Заміна аудіо на 5.1
Ваш часовий пояс: GMT + 2 Години

Нова тема   Відповісти