1983 (Сезон 1) / 1983 (Season 1) (2018) 720p Ukr/Pol | sub Eng/Multi

Нові коментарі

Нова тема   Відповісти
Автор Повідомлення
Anonymous 







2019-12-17 00:44  
1983 (Сезон 1) / 1983 (Season 1) (2018) 720p Ukr/Pol | sub Eng/Multi

1983 (Сезон 1) / 1983 (Season 1) (2018) 720p Ukr/Pol | sub Eng/Multi


Жанр: драма, трилер, кримінальний
Країна: Польща



Кінокомпанія: House Media Company, The Kennedy/Marshall Company
Режисер: Ольга Хайдас, Агнєшка Смочинська, Кася Адамік, Агнєшка Голланд
Актори: Єва Блащик, Анджей Хира, Агнєшка Глиньска, Мацей Мусял, Михалина Ольшанска, Едіта Ольшувка, Катажина Скаржанка, Хелена Суецка та інші

Сюжет:
Серіал розповість альтернативну історію про світ, в якому руйнівний теракт, організований в Польщі в 1983 році, зупинив демократизацію країни і дозволив зберегти в ній соціалістичний лад. Дія політичного трилера розгорнеться в 2002 році: «залізна завіса» ніколи не падала і Радянський Союз не розпався.


Тривалість: 1 серія: ~ 60 хв. (цілком серій: 8)
Перелік серій
1. Entaglement
2. Rollback
3. Alignment
4. Blowback
5. Sanctuary
6. Subversion
7. Mayday
8. Requiem
Якість:
Відео:
кодек:
розмір кадру: 1280 х 720
бітрейт: 1400 кб/с

Аудіо # 1:
мова: українська
переклад: багатоголосий закадровий
кодек: 5.1
бітрейт: 384 кб/с

Аудіо # 2:
мова: польська
переклад: оригінал
кодек: E- 5.1
бітрейт: 640 кб/с

Джерело озвучення:
DniproFilm

Субтитри:
мова: англійська (SDH), іспанська (кастильська), іспанська, французька, німецька, італійська, португальська, португальська (браз.), польська (SDH), турецька, шведська, данська, фінська, нідерландська, норвезька, болгарська, грецька, гебрейська, арабська, румунська, індонезійська, тайська, корейська, китайська (спрощ.), китайська (трад.), японська
тип: програмні (м'які)
формат: *.srt
Info
Код:
General
Unique ID                                : 180148109896916087807648414283579490309 (0x87874390C111325FCA5D7D23A8A78005)
Complete name                            : 1983 S01E01 (2018) 720p [Ukr_Pol] [Hurtom].
Format                                   :
Format version                           : Version 4
File size                                : 975 MiB
Duration                                 : 58 min 2 s
Overall bit rate mode                    : Variable
Overall bit rate                         : 2 349 kb/s
Movie name                               : 1983 (Сезон 1, серія 1) (2018)
Encoded date                             : UTC 2019-12-14 22:04:00
Writing application                      : v30.1.0 ('Forever And More') 64-bit
Writing library                          : libebml v1.3.6 + v1.4.9
Cover                                    : Yes
Attachments                              : cover.jpg

Video
ID                                       : 1
Format                                   : AVC
Format/Info                              : Advanced Video Codec
Format profile                           : [email protected]
Format settings                          : CABAC / 3 Ref Frames
Format settings, CABAC                   : Yes
Format settings, ReFrames                : 3 frames
Codec ID                                 : V_MPEG4/ISO/AVC
Duration                                 : 58 min 2 s
Bit rate mode                            : Variable
Bit rate                                 : 1 319 kb/s
Nominal bit rate                         : 1 400 kb/s
Maximum bit rate                         : 2 100 kb/s
Width                                    : 1 280 pixels
Height                                   : 720 pixels
Display aspect ratio                     : 16:9
Frame rate mode                          : Constant
Frame rate                               : 25.000 FPS
Color space                              : YUV
Chroma subsampling                       : 4:2:0
Bit depth                                : 8 bits
Scan type                                : Progressive
Bits/(Pixel*Frame)                       : 0.057
Stream size                              : 548 MiB (56%)
Writing library                          : core 148 r2715 7e75228
Encoding settings                        : cabac=1 / ref=3 / deblock=1:0:0 / analyse=0x1:0x111 / me=umh / subme=10 / psy=1 / psy_rd=1.00:0.00 / mixed_ref=1 / me_range=24 / chroma_me=1 / trellis=2 / 8x8dct=0 / cqm=0 / deadzone=21,11 / fast_pskip=1 / chroma_qp_offset=-2 / threads=8 / lookahead_threads=1 / sliced_threads=0 / nr=0 / decimate=1 / interlaced=0 / bluray_compat=0 / stitchable=1 / constrained_intra=0 / bframes=2 / b_pyramid=0 / b_adapt=2 / b_bias=0 / direct=3 / weightb=1 / open_gop=0 / weightp=2 / keyint=50 / keyint_min=26 / scenecut=0 / intra_refresh=0 / rc_lookahead=50 / rc=2pass / mbtree=1 / bitrate=1400 / ratetol=1.0 / qcomp=0.50 / qpmin=6 / qpmax=51 / qpstep=4 / cplxblur=20.0 / qblur=0.5 / vbv_maxrate=2100 / vbv_bufsize=2800 / nal_hrd=vbr / filler=0 / ip_ratio=1.40 / aq=1:1.00
Default                                  : Yes
Forced                                   : No

Audio #1
ID                                       : 2
Format                                   : AC-3
Format/Info                              : Audio Coding 3
Commercial name                          : Dolby Digital
Codec ID                                 : A_AC3
Duration                                 : 58 min 2 s
Bit rate mode                            : Constant
Bit rate                                 : 384 kb/s
Channel(s)                               : 6 channels
Channel layout                           : L R C LFE Ls Rs
Sampling rate                            : 48.0 kHz
Frame rate                               : 31.250 FPS (1536 SPF)
Bit depth                                : 16 bits
Compression mode                         : Lossy
Stream size                              : 159 MiB (16%)
Language                                 : Ukrainian
Service kind                             : Complete Main
Default                                  : Yes
Forced                                   : Yes

Audio #2
ID                                       : 3
Format                                   : E-AC-3
Format/Info                              : Enhanced AC-3
Commercial name                          : Dolby Digital Plus
Codec ID                                 : A_EAC3
Duration                                 : 58 min 2 s
Bit rate mode                            : Constant
Bit rate                                 : 640 kb/s
Channel(s)                               : 6 channels
Channel layout                           : L R C LFE Ls Rs
Sampling rate                            : 48.0 kHz
Frame rate                               : 31.250 FPS (1536 SPF)
Compression mode                         : Lossy
Stream size                              : 266 MiB (27%)
Title                                    : Polish
Language                                 : Polish
Service kind                             : Complete Main
Default                                  : No
Forced                                   : No

Text #1
ID                                       : 4
Format                                   : UTF-8
Codec ID                                 : S_TEXT/UTF8
Codec ID/Info                            : UTF-8 Plain Text
Duration                                 : 51 min 51 s
Bit rate                                 : 48 b/s
Count of elements                        : 593
Stream size                              : 18.3 KiB (0%)
Title                                    : English [Full]
Language                                 : English
Default                                  : No
Forced                                   : No

Text #2
ID                                       : 5
Format                                   : UTF-8
Codec ID                                 : S_TEXT/UTF8
Codec ID/Info                            : UTF-8 Plain Text
Duration                                 : 53 min 26 s
Bit rate                                 : 53 b/s
Count of elements                        : 697
Stream size                              : 20.9 KiB (0%)
Title                                    : English [SDH]
Language                                 : English
Default                                  : No
Forced                                   : No

Text #3
ID                                       : 6
Format                                   : UTF-8
Codec ID                                 : S_TEXT/UTF8
Codec ID/Info                            : UTF-8 Plain Text
Duration                                 : 57 min 16 s
Bit rate                                 : 46 b/s
Count of elements                        : 613
Stream size                              : 19.6 KiB (0%)
Title                                    : Castilian [Full]
Language                                 : Spanish
Default                                  : No
Forced                                   : No

Text #4
ID                                       : 7
Format                                   : UTF-8
Codec ID                                 : S_TEXT/UTF8
Codec ID/Info                            : UTF-8 Plain Text
Duration                                 : 57 min 16 s
Bit rate                                 : 44 b/s
Count of elements                        : 613
Stream size                              : 18.8 KiB (0%)
Title                                    : Spanish [Full]
Language                                 : Spanish
Default                                  : No
Forced                                   : No

Text #5
ID                                       : 8
Format                                   : UTF-8
Codec ID                                 : S_TEXT/UTF8
Codec ID/Info                            : UTF-8 Plain Text
Duration                                 : 57 min 16 s
Bit rate                                 : 48 b/s
Count of elements                        : 613
Stream size                              : 20.5 KiB (0%)
Title                                    : French [Full]
Language                                 : French
Default                                  : No
Forced                                   : No

Text #6
ID                                       : 9
Format                                   : UTF-8
Codec ID                                 : S_TEXT/UTF8
Codec ID/Info                            : UTF-8 Plain Text
Duration                                 : 57 min 16 s
Bit rate                                 : 45 b/s
Count of elements                        : 614
Stream size                              : 18.9 KiB (0%)
Title                                    : German [Full]
Language                                 : German
Default                                  : No
Forced                                   : No

Text #7
ID                                       : 10
Format                                   : UTF-8
Codec ID                                 : S_TEXT/UTF8
Codec ID/Info                            : UTF-8 Plain Text
Duration                                 : 57 min 16 s
Bit rate                                 : 44 b/s
Count of elements                        : 613
Stream size                              : 18.7 KiB (0%)
Title                                    : Italian [Full]
Language                                 : Italian
Default                                  : No
Forced                                   : No

Text #8
ID                                       : 11
Format                                   : UTF-8
Codec ID                                 : S_TEXT/UTF8
Codec ID/Info                            : UTF-8 Plain Text
Duration                                 : 57 min 16 s
Bit rate                                 : 45 b/s
Count of elements                        : 614
Stream size                              : 19.2 KiB (0%)
Title                                    : Portuguese [Full]
Language                                 : Portuguese
Default                                  : No
Forced                                   : No

Text #9
ID                                       : 12
Format                                   : UTF-8
Codec ID                                 : S_TEXT/UTF8
Codec ID/Info                            : UTF-8 Plain Text
Duration                                 : 57 min 16 s
Bit rate                                 : 45 b/s
Count of elements                        : 614
Stream size                              : 19.2 KiB (0%)
Title                                    : Brazilian Portuguese [Full]
Language                                 : Portuguese
Default                                  : No
Forced                                   : No

Text #10
ID                                       : 13
Format                                   : UTF-8
Codec ID                                 : S_TEXT/UTF8
Codec ID/Info                            : UTF-8 Plain Text
Duration                                 : 31 min 47 s
Bit rate                                 : 5 b/s
Count of elements                        : 36
Stream size                              : 1.18 KiB (0%)
Title                                    : Polish [Forced]
Language                                 : Polish
Default                                  : No
Forced                                   : Yes

Text #11
ID                                       : 14
Format                                   : UTF-8
Codec ID                                 : S_TEXT/UTF8
Codec ID/Info                            : UTF-8 Plain Text
Duration                                 : 53 min 7 s
Bit rate                                 : 60 b/s
Count of elements                        : 690
Stream size                              : 23.6 KiB (0%)
Title                                    : Polish [SDH]
Language                                 : Polish
Default                                  : No
Forced                                   : No

Text #12
ID                                       : 15
Format                                   : UTF-8
Codec ID                                 : S_TEXT/UTF8
Codec ID/Info                            : UTF-8 Plain Text
Duration                                 : 57 min 16 s
Bit rate                                 : 47 b/s
Count of elements                        : 612
Stream size                              : 20.1 KiB (0%)
Title                                    : Turkish [Full]
Language                                 : Turkish
Default                                  : No
Forced                                   : No

Text #13
ID                                       : 16
Format                                   : UTF-8
Codec ID                                 : S_TEXT/UTF8
Codec ID/Info                            : UTF-8 Plain Text
Duration                                 : 57 min 16 s
Bit rate                                 : 43 b/s
Count of elements                        : 544
Stream size                              : 18.2 KiB (0%)
Title                                    : Swedish [Full]
Language                                 : Swedish
Default                                  : No
Forced                                   : No

Text #14
ID                                       : 17
Format                                   : UTF-8
Codec ID                                 : S_TEXT/UTF8
Codec ID/Info                            : UTF-8 Plain Text
Duration                                 : 57 min 16 s
Bit rate                                 : 44 b/s
Count of elements                        : 547
Stream size                              : 18.7 KiB (0%)
Title                                    : Danish [Full]
Language                                 : Danish
Default                                  : No
Forced                                   : No

Text #15
ID                                       : 18
Format                                   : UTF-8
Codec ID                                 : S_TEXT/UTF8
Codec ID/Info                            : UTF-8 Plain Text
Duration                                 : 57 min 16 s
Bit rate                                 : 47 b/s
Count of elements                        : 547
Stream size                              : 19.8 KiB (0%)
Title                                    : Finnish [Full]
Language                                 : Finnish
Default                                  : No
Forced                                   : No

Text #16
ID                                       : 19
Format                                   : UTF-8
Codec ID                                 : S_TEXT/UTF8
Codec ID/Info                            : UTF-8 Plain Text
Duration                                 : 57 min 16 s
Bit rate                                 : 46 b/s
Count of elements                        : 591
Stream size                              : 19.6 KiB (0%)
Title                                    : Dutch [Full]
Language                                 : Dutch
Default                                  : No
Forced                                   : No

Text #17
ID                                       : 20
Format                                   : UTF-8
Codec ID                                 : S_TEXT/UTF8
Codec ID/Info                            : UTF-8 Plain Text
Duration                                 : 57 min 16 s
Bit rate                                 : 46 b/s
Count of elements                        : 545
Stream size                              : 19.7 KiB (0%)
Title                                    : Norwegian [Full]
Language                                 : Norwegian
Default                                  : No
Forced                                   : No

Text #18
ID                                       : 21
Format                                   : UTF-8
Codec ID                                 : S_TEXT/UTF8
Codec ID/Info                            : UTF-8 Plain Text
Duration                                 : 57 min 16 s
Bit rate                                 : 74 b/s
Count of elements                        : 613
Stream size                              : 31.3 KiB (0%)
Title                                    : Bulgarian [Full]
Language                                 : Bulgarian
Default                                  : No
Forced                                   : No

Text #19
ID                                       : 22
Format                                   : UTF-8
Codec ID                                 : S_TEXT/UTF8
Codec ID/Info                            : UTF-8 Plain Text
Duration                                 : 53 min 20 s
Bit rate                                 : 87 b/s
Count of elements                        : 615
Stream size                              : 34.1 KiB (0%)
Title                                    : Greek [Full]
Language                                 : Greek
Default                                  : No
Forced                                   : No

Text #20
ID                                       : 23
Format                                   : UTF-8
Codec ID                                 : S_TEXT/UTF8
Codec ID/Info                            : UTF-8 Plain Text
Duration                                 : 53 min 18 s
Bit rate                                 : 67 b/s
Count of elements                        : 609
Stream size                              : 26.3 KiB (0%)
Title                                    : Hebrew [Full]
Language                                 : Hebrew
Default                                  : No
Forced                                   : No

Text #21
ID                                       : 24
Format                                   : UTF-8
Codec ID                                 : S_TEXT/UTF8
Codec ID/Info                            : UTF-8 Plain Text
Duration                                 : 57 min 16 s
Bit rate                                 : 66 b/s
Count of elements                        : 616
Stream size                              : 28.1 KiB (0%)
Title                                    : Arabic [Full]
Language                                 : Arabic
Default                                  : No
Forced                                   : No

Text #22
ID                                       : 25
Format                                   : UTF-8
Codec ID                                 : S_TEXT/UTF8
Codec ID/Info                            : UTF-8 Plain Text
Duration                                 : 57 min 16 s
Bit rate                                 : 54 b/s
Count of elements                        : 615
Stream size                              : 23.1 KiB (0%)
Title                                    : Romanian [Full]
Language                                 : Romanian
Default                                  : No
Forced                                   : No

Text #23
ID                                       : 26
Format                                   : UTF-8
Codec ID                                 : S_TEXT/UTF8
Codec ID/Info                            : UTF-8 Plain Text
Duration                                 : 57 min 16 s
Bit rate                                 : 45 b/s
Count of elements                        : 613
Stream size                              : 19.0 KiB (0%)
Title                                    : Indonesian [Full]
Language                                 : Indonesian
Default                                  : No
Forced                                   : No

Text #24
ID                                       : 27
Format                                   : UTF-8
Codec ID                                 : S_TEXT/UTF8
Codec ID/Info                            : UTF-8 Plain Text
Duration                                 : 57 min 16 s
Bit rate                                 : 129 b/s
Count of elements                        : 616
Stream size                              : 54.4 KiB (0%)
Title                                    : Thai [Full]
Language                                 : Thai
Default                                  : No
Forced                                   : No

Text #25
ID                                       : 28
Format                                   : UTF-8
Codec ID                                 : S_TEXT/UTF8
Codec ID/Info                            : UTF-8 Plain Text
Duration                                 : 53 min 7 s
Bit rate                                 : 65 b/s
Count of elements                        : 616
Stream size                              : 25.5 KiB (0%)
Title                                    : Korean [Full]
Language                                 : Korean
Default                                  : No
Forced                                   : No

Text #26
ID                                       : 29
Format                                   : UTF-8
Codec ID                                 : S_TEXT/UTF8
Codec ID/Info                            : UTF-8 Plain Text
Duration                                 : 57 min 16 s
Bit rate                                 : 52 b/s
Count of elements                        : 616
Stream size                              : 22.0 KiB (0%)
Title                                    : Chinese (Simplified) [Full]
Language                                 : Chinese
Default                                  : No
Forced                                   : No

Text #27
ID                                       : 30
Format                                   : UTF-8
Codec ID                                 : S_TEXT/UTF8
Codec ID/Info                            : UTF-8 Plain Text
Duration                                 : 57 min 16 s
Bit rate                                 : 49 b/s
Count of elements                        : 616
Stream size                              : 20.6 KiB (0%)
Title                                    : Chinese (Traditional) [Full]
Language                                 : Chinese
Default                                  : No
Forced                                   : No

Text #28
ID                                       : 31
Format                                   : UTF-8
Codec ID                                 : S_TEXT/UTF8
Codec ID/Info                            : UTF-8 Plain Text
Duration                                 : 53 min 8 s
Bit rate                                 : 51 b/s
Count of elements                        : 659
Stream size                              : 19.9 KiB (0%)
Title                                    : Japanese [Full]
Language                                 : Japanese
Default                                  : No
Forced                                   : No

Скріншоти







Джерело:


Авторський реліз (завантажувати можна без реєстрації)
 Трекер:    Зареєстрований   

Завантажити / скачати серіал українською



відео для новачків



 Зареєстрований:   2019-12-17 00:44
 Розмір:   7.04 GB 
 Оцінка серіалу:   9.8/10 (Голосів: 4)
   
Anonymous 







2019-12-17 00:45  
реліз без реклами
Gespenst 
VIP


З нами з: 30.09.09
Востаннє: 18.11.20
Повідомлень: 314

2019-12-17 06:55  
судячи з того як ліваки захоплюють світ, як ліві рухи видаються за праві, як люди бажають халяви - ментально він не розпався і в нашому світі...
Ваш часовий пояс: GMT + 2 Години

Нова тема   Відповісти