Робокоп / RoboCop [Director's Cut, Arrow Films Remastered] (1987) Remux 1080p [Limited Edition] Ukr/Eng | Sub Eng

Нові коментарі

Нова тема   Відповісти
Автор Повідомлення
MakRA 
VIP


З нами з: 11.11.18
Востаннє: 21.09.20
Повідомлень: 1119

2019-12-16 23:55  
Робокоп / RoboCop [Director's Cut, Arrow Films Remastered] (1987) Remux 1080p [Limited Edition] Ukr/Eng | Sub Eng


Українські постери:


Альтернативні обкладинки:


Жанр: екшн, фантастика, кримінальний
Країна: США



Кінокомпанія: Orion Pictures, MGM Home Entertainment
Режисер: Пол Верховен [Paul Verhoeven]
Актори: Пітер Веллер [Peter Weller], Ненсі Аллен [Nancy Allen], Ден О`Герлігі [Dan O'Herlihy], Ронні Кокс [Ronny Cox], Кертвуд Сміт [Kurtwood Smith], Мігель Феррер [Miguel Ferrer], Роберт Дукуй [Robert DoQui], Рей Вайз [Ray Wise], Фелтон Перрі [Felton Perry], Пол МакКрейн [Paul McCrane]

Сюжет:
Перший блокбастер та справжній шедевр від нідерландського режисера Пола Верховена, яка принесла йому міжнародну популярність і визнання, та назавжди закріпила у свідомості глядачів його неповторний стиль.

Події розгортаються у недалекому майбутньому, у місті Детройт, де вулична злочинність набула небувалих масштабів. Міська влада укладає контракт з корпорацією OCP, яка планує побудувати в Детройті сучасний квартал під назвою Дельта-Сіті, але почати цей проект OCP не може через кримінальну обстановку.

На зустрічі керівництва OCP віце-президент Дік Джонс представляє новий засіб охорони правопорядку – робота-поліцейського. Але для його створення необхідна людська нервова система. Невдовзі піддослідний з’являється. Ним стає трагічно загиблий у сутчці зі злочинцями поліцейський на ім’я Алекс Мерфі…

Цікаве про фільм та зйомки:

-Режисер фільму Пол Верховен знявся в епізодичній ролі-камео в сцені арешту Леона.
-У рекламному ролику картини була використана музика з «Термінатора» (1984).
-В кінці фільму Робот-поліцейський йде по воді. За словами Верховена, він таким чином хотів представити футуристичний образ Христа.
-Дві сцени були заплановані за сценарієм, але так і не зняті. Перша — сцена відвідування Робокопом своєї могили. Друга — довга автомобільна гонитва, яка приводить персонажів на сталеливарний завод, де Робокоп знімає шолом.
-У фільмі в сукупності вбито 30 осіб.
-У цілодобовому магазині людина вибирає комікс «Залізна людина» («Iron Man»).
-Режисерська версія фільму має хронометраж 103 хвилини.
-Основа костюма робота-поліцейського взята з японського серіалу «Space Sheriff Gavan» 1982 року.


Тривалість: 01:43:18 (Director's Cut)
Якість: Remux 1080p [Arrow Films, Remastered Limited Edition] - порівняння з попереднім виданням від MGM Home Entertainment
Відео:
кодек:
розмір кадру: 1920 х 1080
бітрейт: 29,2 Mб/с

Аудіо # 1:
мова: українська
переклад: багатоголосий закадровий
кодек: 2.0
бітрейт: 192 кб/с

Аудіо # 2:
мова: англійська
переклад: оригінал
кодек: -HD MA 5.1
бітрейт: 3613 кб/с

Аудіо # 3:
мова: англійська
переклад: оригінал
кодек: 2.0
бітрейт: 192 кб/с

Аудіо # 4:
мова: англійська
переклад: архівні коментарі режисера Пола Верховена, сценариста Еда Ноймайера і виконавчого продюсера Джона Девісона
кодек: 2.0
бітрейт: 192 кб/с

Аудіо # 5:
мова: англійська
переклад: нові коментарі історика фільму Пола М. Саммона
кодек: 2.0
бітрейт: 192 кб/с

Аудіо # 6:
мова: англійська
переклад: нові коментарі шанувальників кіно: Крістофера Гріффітса,Гері Смарта & Іствуда Аллена
кодек: 2.0
бітрейт: 192 кб/с

Субтитри # 1-2: (Full) | (SDH)
мова: англійська
тип: програмні (м'які)
формат: *.srt

Субтитри # 3: (SDH)
мова: англійська
тип: пререндерні
формат: *.pgs

Субтитри # 4: (Full) | на коментарі режисера Пола Верховена, сценариста Еда Ноймайера і виконавчого продюсера Джона Девісона
мова: англійська
тип: пререндерні
формат: *.pgs
Info
General
Unique ID : 317337514048529937824855190340410955474 (0xEEBCFB697C8E04EB35B75C57BA0A56D2)
Complete name : I:\+ Фільми в HD\екшн, фантастика\RoboCop. Trilogy (1987-1993) Remux 1080p\RoboCop [Director's Cut, Arrow Remastered] (1987) Remux 1080p [Limited Edition] UkrEng Sub Eng [Hurtom].
Format :
Format version : Version 4
File size : 24.4 GiB
Duration : 1 h 43 min
Overall bit rate mode : Variable
Overall bit rate : 33.8 Mb/s
Movie name : Робокоп / RoboCop [Director's Cut, Arrow Films Remastered] (1987) Remux 1080p [Limited Edition] Ukr/Eng | Sub Eng [Hurtom]
Encoded date : UTC 2020-02-01 01:00:58
Writing application : v25.0.0 ('Prog Noir') 64-bit
Writing library : libebml v1.3.6 + v1.4.9
Cover : Yes
Attachments : cover.jpg

Video
ID : 1
Format : AVC
Format/Info : Advanced Video Codec
Format profile : [email protected]
Format settings : CABAC / 3 Ref Frames
Format settings, CABAC : Yes
Format settings, Reference fra : 3 frames
Codec ID : V_MPEG4/ISO/AVC
Duration : 1 h 43 min
Bit rate mode : Variable
Bit rate : 29.2 Mb/s
Maximum bit rate : 38.0 Mb/s
Width : 1 920 pixels
Height : 1 080 pixels
Display aspect ratio : 16:9
Frame rate mode : Constant
Frame rate : 23.976 (24000/1001) FPS
Color space : YUV
Chroma subsampling : 4:2:0
Bit depth : 8 bits
Scan type : Progressive
Bits/(Pixel*Frame) : 0.588
Stream size : 21.1 GiB (86%)
Title : RoboCop [Director's Cut, Arrow Films Remastered] (1987) Remux 1080p [Limited Edition] Ukr/Eng | Sub Eng [Hurtom]
Language : Ukrainian
Default : Yes
Forced : Yes
Color range : Limited
Color primaries : BT.709
Transfer characteristics : BT.709
Matrix coefficients : BT.709

Audio #1
ID : 2
Format : AC-3
Format/Info : Audio Coding 3
Commercial name : Dolby Digital
Codec ID : A_AC3
Duration : 1 h 43 min
Bit rate mode : Constant
Bit rate : 192 kb/s
Channel(s) : 2 channels
Channel layout : L R
Sampling rate : 48.0 kHz
Frame rate : 31.250 FPS (1536 SPF)
Bit depth : 16 bits
Compression mode : Lossy
Delay relative to video : 28 ms
Stream size : 142 MiB (1%)
Title : MVO [1+1] [2+2] 2.0
Language : Ukrainian
Service kind : Complete Main
Default : Yes
Forced : Yes

Audio #2
ID : 3
Format : XLL
Format/Info : Digital Theater Systems
Commercial name : -HD Master Audio
Codec ID : A_DTS
Duration : 1 h 43 min
Bit rate mode : Variable
Bit rate : 3 613 kb/s
Channel(s) : 6 channels
Channel layout : C L R Ls Rs LFE
Sampling rate : 48.0 kHz
Frame rate : 93.750 FPS (512 SPF)
Bit depth : 24 bits
Compression mode : Lossless
Stream size : 2.61 GiB (11%)
Title : Original -HD MA 5.1
Language : English
Default : No
Forced : No

Audio #3
ID : 4
Format : AC-3
Format/Info : Audio Coding 3
Commercial name : Dolby Digital
Codec ID : A_AC3
Duration : 1 h 43 min
Bit rate mode : Constant
Bit rate : 192 kb/s
Channel(s) : 2 channels
Channel layout : L R
Sampling rate : 48.0 kHz
Frame rate : 31.250 FPS (1536 SPF)
Bit depth : 16 bits
Compression mode : Lossy
Delay relative to video : 28 ms
Stream size : 142 MiB (1%)
Title : Original 2.0
Language : English
Service kind : Complete Main
Default : No
Forced : No

Audio #4
ID : 5
Format : AC-3
Format/Info : Audio Coding 3
Commercial name : Dolby Digital
Codec ID : A_AC3
Duration : 1 h 43 min
Bit rate mode : Constant
Bit rate : 192 kb/s
Channel(s) : 2 channels
Channel layout : L R
Sampling rate : 48.0 kHz
Frame rate : 31.250 FPS (1536 SPF)
Bit depth : 16 bits
Compression mode : Lossy
Stream size : 142 MiB (1%)
Title : Archive commentary by director Paul Verhoeven, executive producer Jon Davison & co-writer Ed Neumeier
Language : English
Service kind : Complete Main
Default : No
Forced : No

Audio #5
ID : 6
Format : AC-3
Format/Info : Audio Coding 3
Commercial name : Dolby Digital
Codec ID : A_AC3
Duration : 1 h 43 min
Bit rate mode : Constant
Bit rate : 192 kb/s
Channel(s) : 2 channels
Channel layout : L R
Sampling rate : 48.0 kHz
Frame rate : 31.250 FPS (1536 SPF)
Bit depth : 16 bits
Compression mode : Lossy
Stream size : 142 MiB (1%)
Title : New commentary by film historian Paul M. Sammon
Language : English
Service kind : Complete Main
Default : No
Forced : No

Audio #6
ID : 7
Format : AC-3
Format/Info : Audio Coding 3
Commercial name : Dolby Digital
Codec ID : A_AC3
Duration : 1 h 43 min
Bit rate mode : Constant
Bit rate : 192 kb/s
Channel(s) : 2 channels
Channel layout : L R
Sampling rate : 48.0 kHz
Frame rate : 31.250 FPS (1536 SPF)
Bit depth : 16 bits
Compression mode : Lossy
Stream size : 142 MiB (1%)
Title : New commentary by fans Christopher Griffiths, Gary Smart & Eastwood Allen
Language : English
Service kind : Complete Main
Default : No
Forced : No

Text #1
ID : 8
Format : UTF-8
Codec ID : S_TEXT/UTF8
Codec ID/Info : UTF-8 Plain Text
Duration : 1 h 36 min
Bit rate : 52 b/s
Count of elements : 1137
Stream size : 36.8 KiB (0%)
Title : Eng (Full) | SRT
Language : English
Default : No
Forced : No

Text #2
ID : 9
Format : UTF-8
Codec ID : S_TEXT/UTF8
Codec ID/Info : UTF-8 Plain Text
Duration : 1 h 36 min
Bit rate : 56 b/s
Count of elements : 1330
Stream size : 39.4 KiB (0%)
Title : Eng (SDH) | SRT
Language : English
Default : No
Forced : No

Text #3
ID : 10
Format : PGS
Muxing mode : zlib
Codec ID : S_HDMV/PGS
Codec ID/Info : Picture based subtitle format used on BDs/HD-DVDs
Duration : 1 h 36 min
Bit rate : 38.2 kb/s
Count of elements : 2660
Stream size : 26.2 MiB (0%)
Title : Eng (SDH) | PGS
Language : English
Default : No
Forced : No

Text #4
ID : 11
Format : PGS
Muxing mode : zlib
Codec ID : S_HDMV/PGS
Codec ID/Info : Picture based subtitle format used on BDs/HD-DVDs
Duration : 1 h 42 min
Bit rate : 97.2 kb/s
Count of elements : 4338
Stream size : 71.1 MiB (0%)
Title : Eng (Full) | Commentary by director Paul Verhoeven, executive producer Jon Davison & co-writer Ed Neumeier
Language : English
Default : No
Forced : No

Menu
00:00:00.000 : en:Main Title/New Guy
00:06:45.113 : en:Ed 209
00:14:07.555 : en:Hot Pursuit
00:17:32.551 : en:Mutilation of Murphy
00:26:40.516 : en:New Kinda Cop
00:34:28.024 : en:On the Streets
00:40:32.805 : en:Ocp Showdown
00:45:15.338 : en:Bad Memories
00:49:46.650 : en:Self-Discovery
00:57:48.131 : en:Blast From the Past
01:01:41.239 : en:Killer Caught
01:08:25.184 : en:Battle Bots
01:15:59.889 : en:Un-Masked
01:22:46.545 : en:Once and for All
01:33:53.962 : en:Fired
01:37:04.902 : en:End Credits
Скріншоти
Джерело: &
За український звук дякую п. Bohdan237, п. Romario_O
За постери дякую п. d1mmі
Особиста оцінка: 10 - без зайвих вагань рекомендую всім!




Золотий реліз (завантажене не впливає на рейтинг)
 Трекер:    Зареєстрований   

Завантажити / скачати фільм українською



відео для новачків



 Зареєстрований:   2020-02-01 04:29
 Розмір:   24.42 GB 
 Оцінка фільму:   9.6/10 (Голосів: 16)
   
Інші релізи
MakRA 
VIP


З нами з: 11.11.18
Востаннє: 21.09.20
Повідомлень: 1119

2020-02-01 04:34  
Реліз оновлено 01.02.2020
Відео з нового видання від Arrow Films + додано іменовані розділи

Ваш часовий пояс: GMT + 2 Години

Нова тема   Відповісти