Три пера / Die drei Federn (2014) 720p Ukr/Ger

Нові коментарі

Нова тема   Відповісти
Автор Повідомлення
Anonymous 







2019-12-16 18:24  
Три пера / Die drei Federn (2014) 720p Ukr/Ger

Три пера / Die drei Federn (2014) 720p Ukr/Ger


Жанр: сімейний, мелодрама, казка
Країна: Німеччина



Кінокомпанія: TV-60 Filmproduktion, Bayerischer Rundfunk (BR)
Режисер: Су Турхан
Актори: Скай Дюмон, Яннік Шуманн, Міхаель Шьонборн, Кіра Софіа Каре, Емануель Фітц, Матіас Келле, Штефан Цаш, Тобіас Крель, Ютта Шпайдель, Ґьоц Отто

Сюжет:
Добрий король справедливо править своїми володіннями. І у нього є три сини. Двоє з яких виросли мужніми та кмітливими, вони зможуть взяти правління королівством у свої руки, коли батько помре. А от молодший син Густав з малечку ріс без особливого бажання ставати правителем.

Король вирішив, що кожен з його синів має спробувати себе у справедливій боротьбі за корону. Тому він вигадує ряд складних випробувань для синів, аби ті змогли довести свою спроможність правити королівством.

Хто з принців зможе пройти усі складні випробування? І хто ж стане новим королем?


Тривалість: 00:58:31
Якість:
Відео:
кодек:
розмір кадру: 1280 х 720
бітрейт: 4724 кб/с

Аудіо # 1:
мова: українська
переклад: професійний дубльований
кодек: 2.0
бітрейт: 192 кб/с

Аудіо # 2:
мова: німецька
переклад: оригінал
кодек: 2.0
бітрейт: 192 кб/с

Джерело озвучення:

За запис звуку з ТБ дякуємо пану Bohdan237
Звук взято з релізу
Info
Код:
General
Unique ID                                : 260749770491929789995190518751227871177 (0xC42A943FC86FDD323A33AD22EFC8FFC9)
Complete name                            : Die drei Federn (2014) 720p [Ukr_Ger] [Hurtom].
Format                                   :
Format version                           : Version 4
File size                                : 2.09 GiB
Duration                                 : 58 min 31 s
Overall bit rate                         : 5 111 kb/s
Movie name                               : Три пера (2014)
Encoded date                             : UTC 2019-12-16 14:26:06
Writing application                      : v30.1.0 ('Forever And More') 64-bit
Writing library                          : libebml v1.3.6 + v1.4.9
Cover                                    : Yes
Attachments                              : cover.jpg

Video
ID                                       : 1
Format                                   : AVC
Format/Info                              : Advanced Video Codec
Format profile                           : [email protected]
Format settings                          : CABAC / 5 Ref Frames
Format settings, CABAC                   : Yes
Format settings, ReFrames                : 5 frames
Codec ID                                 : V_MPEG4/ISO/AVC
Duration                                 : 58 min 31 s
Bit rate                                 : 4 724 kb/s
Width                                    : 1 280 pixels
Height                                   : 720 pixels
Display aspect ratio                     : 16:9
Frame rate mode                          : Constant
Frame rate                               : 25.000 FPS
Color space                              : YUV
Chroma subsampling                       : 4:2:0
Bit depth                                : 8 bits
Scan type                                : Progressive
Bits/(Pixel*Frame)                       : 0.205
Stream size                              : 1.93 GiB (92%)
Writing library                          : core 142 r2479 dd79a61
Encoding settings                        : cabac=1 / ref=5 / deblock=1:-1:-1 / analyse=0x3:0x113 / me=umh / subme=8 / psy=1 / psy_rd=1.00:0.15 / mixed_ref=1 / me_range=16 / chroma_me=1 / trellis=1 / 8x8dct=1 / cqm=0 / deadzone=21,11 / fast_pskip=1 / chroma_qp_offset=-3 / threads=12 / lookahead_threads=2 / sliced_threads=0 / nr=0 / decimate=1 / interlaced=0 / bluray_compat=0 / constrained_intra=0 / bframes=3 / b_pyramid=2 / b_adapt=2 / b_bias=0 / direct=3 / weightb=1 / open_gop=0 / weightp=2 / keyint=250 / keyint_min=24 / scenecut=40 / intra_refresh=0 / rc_lookahead=50 / rc=crf / mbtree=1 / crf=19.0 / qcomp=0.60 / qpmin=0 / qpmax=69 / qpstep=4 / ip_ratio=1.40 / aq=1:1.00
Language                                 : German
Default                                  : Yes
Forced                                   : No

Audio #1
ID                                       : 2
Format                                   : AC-3
Format/Info                              : Audio Coding 3
Commercial name                          : Dolby Digital
Codec ID                                 : A_AC3
Duration                                 : 58 min 31 s
Bit rate mode                            : Constant
Bit rate                                 : 192 kb/s
Channel(s)                               : 2 channels
Channel layout                           : L R
Sampling rate                            : 48.0 kHz
Frame rate                               : 31.250 FPS (1536 SPF)
Bit depth                                : 16 bits
Compression mode                         : Lossy
Stream size                              : 80.4 MiB (4%)
Language                                 : Ukrainian
Service kind                             : Complete Main
Default                                  : Yes
Forced                                   : Yes

Audio #2
ID                                       : 3
Format                                   : AC-3
Format/Info                              : Audio Coding 3
Commercial name                          : Dolby Digital
Codec ID                                 : A_AC3
Duration                                 : 58 min 31 s
Bit rate mode                            : Constant
Bit rate                                 : 192 kb/s
Channel(s)                               : 2 channels
Channel layout                           : L R
Sampling rate                            : 48.0 kHz
Frame rate                               : 31.250 FPS (1536 SPF)
Bit depth                                : 16 bits
Compression mode                         : Lossy
Stream size                              : 80.4 MiB (4%)
Language                                 : German
Service kind                             : Complete Main
Default                                  : No
Forced                                   : No

Скріншоти





Джерело:


 Трекер:    Зареєстрований   

Завантажити / скачати фільм українською



відео для новачків



 Зареєстрований:   2019-12-16 18:24
 Розмір:   2.09 GB 
 Оцінка фільму:   9.8/10 (Голосів: 6)
   
Інші релізи
   Три пера / Die drei Federn (2014) 1080p Ukr/Ger ssTAss  5 / 0   2.81 GB   2020-09-17 00:24 
   Три пера / Die drei Federn (2014) Ukr/Ger drop_plz  3 / 0   915 MB   2018-07-11 17:58 
Ваш часовий пояс: GMT + 2 Години

Нова тема   Відповісти