Земля до початку часів 10. Міграція довгошиїв / The Land Before Time X. The Great Longneck Migration (2003) 1080p Ukr/Eng | Sub Eng

Нові коментарі

Нова тема   Відповісти
Автор Повідомлення
sergiyko.5 
Забанено
Забанено


З нами з: 25.02.16
Востаннє: 29.10.20
Повідомлень: 3648

2019-12-16 11:14  
Всі одноіменні релізи на трекері

Земля до початку часів 10. Міграція довгошиїв / The Land Before Time X. The Great Longneck Migration (2003) 1080p Ukr/Eng | Sub Eng


Земля до початку часів 10. Міграція довгошиїв / The Land Before Time X. The Great Longneck Migration (2003) 1080p Ukr/Eng | Sub Eng

Жанр: мультфільм, пригоди, сімейний
Країна: США
Режисер: Чарльз Гросвенор
У ролях: Джон Інгл, Алек Медлок, Кенет Марс

Опис:
На нашого героя, невгамовного динозаврика Літлфута, та його друзів чекає неймовірна подорож, сповнена приголомшливих сюрпризів і дивовижних подій.
Ця весела компанія стане свідком багатьох чудес і, звичайно ж, найбільшої ради доісторичних ящерів, де на Літлфута чекає приголомшлива зустріч з одним особливим Довгошиїм динозавром, якого малюк абсолютно не розраховував побачити!



Тривалість: 01:24:21
Якість:

Відео: кодек: розмір кадру: 1440 х 1080 бітрейт: 3900 кб/с
Аудіо # 1: мова: українська переклад: професійний дубльований кодек: 2.0 бітрейт: 192 кб/с
Озвучення:
Аудіо # 2: мова: англійська переклад: оригінал кодек: + 5.1 бітрейт: 640 кб/с
Субтитри: мова: англійська тип: програмні (м'які) формат: *.srt
Про файл:
General
Unique ID : 303601221528443151266177924279491635726 (0xE46777E70EE10F142C31F20A1D4C2A0E)
Complete name : D:\Documents\Torrents\MULT\The Land Before Time 10.The Great Longneck Migration.2003.1080p..
Format :
Format version : Version 4
File size : 2.79 GiB
Duration : 1 h 24 min
Overall bit rate mode : Variable
Overall bit rate : 4 738 kb/s
Movie name : The Land Before Time 10 1080p by sergiyko
Encoded date : UTC 2019-12-16 09:05:28
Writing application : v41.0.0 ('Smarra') 64-bit
Writing library : libebml v1.3.9 + v1.5.2

Video
ID : 1
Format : AVC
Format/Info : Advanced Video Codec
Format profile : [email protected]
Format settings : CABAC / 4 Ref Frames
Format settings, CABAC : Yes
Format settings, Reference : 4 frames
Codec ID : V_MPEG4/ISO/AVC
Duration : 1 h 24 min
Bit rate mode : Variable
Bit rate : 3 904 kb/s
Maximum bit rate : 15.0 Mb/s
Width : 1 440 pixels
Height : 1 080 pixels
Display aspect ratio : 4:3
Frame rate mode : Constant
Frame rate : 23.976 (24000/1001) FPS
Color space : YUV
Chroma subsampling : 4:2:0
Bit depth : 8 bits
Scan type : Progressive
Bits/(Pixel*Frame) : 0.105
Stream size : 2.30 GiB (82%)
Title : The Land Before Time 10
Language : English
Default : Yes
Forced : No
Color range : Limited
Color primaries : BT.709
Transfer characteristics : BT.709
Matrix coefficients : BT.709

Audio #1
ID : 2
Format : AC-3
Format/Info : Audio Coding 3
Commercial name : Dolby Digital
Codec ID : A_AC3
Duration : 1 h 24 min
Bit rate mode : Constant
Bit rate : 192 kb/s
Channel(s) : 2 channels
Channel layout : L R
Sampling rate : 48.0 kHz
Frame rate : 31.250 FPS (1536 SPF)
Compression mode : Lossy
Stream size : 116 MiB (4%)
Title : DUB | К1
Language : Ukrainian
Service kind : Complete Main
Default : Yes
Forced : Yes

Audio #2
ID : 3
Format : E-AC-3
Format/Info : Enhanced AC-3
Commercial name : Dolby Digital Plus
Codec ID : A_EAC3
Duration : 1 h 24 min
Bit rate mode : Constant
Bit rate : 640 kb/s
Channel(s) : 6 channels
Channel layout : L R C LFE Ls Rs
Sampling rate : 48.0 kHz
Frame rate : 31.250 FPS (1536 SPF)
Compression mode : Lossy
Delay relative to video : 21 ms
Stream size : 386 MiB (14%)
Title : Original
Language : English
Service kind : Complete Main
Default : No
Forced : No

Text
ID : 4
Format : UTF-8
Codec ID : S_TEXT/UTF8
Codec ID/Info : UTF-8 Plain Text
Duration : 1 h 22 min
Bit rate : 47 b/s
Count of elements : 1055
Stream size : 28.8 KiB (0%)
Language : English
Default : No
Forced : No
Скріншоти:


Запис/зведення: sergiyko


Срібний реліз (на рейтинг впливає 50% завантаженого)
 Трекер:    Зареєстрований   

Завантажити / скачати мультфільм українською



відео для новачків



 Зареєстрований:   2019-12-16 11:14
 Розмір:   2.79 GB 
 Оцінка мультфільму:   8.9/10 (Голосів: 8)
   
max factor 
Частий відвідувач


З нами з: 08.01.19
Востаннє: 01.02.21
Повідомлень: 42

2019-12-16 14:03  
Дуже дякую вам за вашу працю та небайдужість. Моя повага вам.
zagirskyi 
Новенький


З нами з: 05.06.12
Востаннє: 02.03.21
Повідомлень: 3

2020-05-27 22:52  
Щиро дякую!
Ваш часовий пояс: GMT + 2 Години

Нова тема   Відповісти