Пригоди S Миколая (2018) 720p

Нові коментарі

Нова тема   Відповісти
Автор Повідомлення
sergiyko.5 
Забанено
Забанено


З нами з: 25.02.16
Востаннє: 29.10.20
Повідомлень: 3648

2019-12-16 01:10  
Пригоди S Миколая (2018) 720p


Пригоди S Миколая (2018) 720p

Жанр: комедія
Країна: Україна
Кінокомпанія: Big Hand Films
Режисер: Семен Горов (Сергій Єгоров)
Актори: Марія Єфросініна, Пшемислав Ципріанськи, Максим Лучак, Іванна Бородай, Василь Вірастюк, Андрій Кронглевський, Віталій Ажнов, Тетяна Лаврушко, В'ячеслав Рак, Григорій Боковенко O.Torvald

Сюжет:
«Пригоди S Миколая», робоча назва «Груднева казка, або Пригоди С. Миколая» — сімейна комедія режисера Семена Горова, прем'єра відбулася 13 грудня 2018 року.

Стрічка розповідає про пригоди другокласника Артема, чия сім'я щойно переїхала з великого міста до будинку у Карпатах. До Артема напередодні Дня Святого Миколая неочікувано з'являється сам Миколай. Насправді це злодій в костюмі чарівника. Хлопчику разом з сестрою-підлітком і місцевими дітлахами доводиться проявити справжню згуртованість, сміливість і винахідливість, аби перемогти злодія і врятувати справжнього Святого.




Тривалість: 01:13:55
Якість:

Відео: кодек: розмір кадру: 1280 x 536 бітрейт: 3250 кб/с
Аудіо: мова: українська переклад: оригінал кодек: АС3 2.0 бітрейт: 192 кб/с [Stereo]
Інформація про файл:
General
Unique ID : 42612493267982614579721888244883557831 (0x200EDE2035ADA09090886A230CBC8DC7)
Complete name : D:\Documents\Torrents\FILM\Пригоди S Миколая.2018.720p..
Format :
Format version : Version 4
File size : 1.78 GiB
Duration : 1 h 13 min
Overall bit rate : 3 441 kb/s
Movie name : Пригоди S Миколая 2019 by sergiyko
Encoded date : UTC 2019-12-16 00:46:01
Writing application : v41.0.0 ('Smarra') 64-bit
Writing library : libebml v1.3.9 + v1.5.2
Cover : Yes
Attachments : cover.jpeg

Video
ID : 1
Format : AVC
Format/Info : Advanced Video Codec
Format profile : [email protected]
Format settings : CABAC / 12 Ref Frames
Format settings, CABAC : Yes
Format settings, Reference fra : 12 frames
Codec ID : V_MPEG4/ISO/AVC
Duration : 1 h 13 min
Bit rate : 3 247 kb/s
Width : 1 280 pixels
Height : 536 pixels
Display aspect ratio : 2.40:1
Frame rate mode : Constant
Frame rate : 25.000 FPS
Color space : YUV
Chroma subsampling : 4:2:0
Bit depth : 8 bits
Scan type : Progressive
Bits/(Pixel*Frame) : 0.189
Stream size : 1.68 GiB (94%)
Title : Пригоди S Миколая 2019
Writing library : core 157 r2969 d4099dd
Encoding settings : cabac=1 / ref=12 / deblock=1:0:0 / analyse=0x3:0x133 / me=umh / subme=10 / psy=1 / psy_rd=1.00:0.00 / mixed_ref=1 / me_range=24 / chroma_me=1 / trellis=2 / 8x8dct=1 / cqm=0 / deadzone=21,11 / fast_pskip=1 / chroma_qp_offset=-2 / threads=17 / lookahead_threads=2 / sliced_threads=0 / nr=0 / decimate=1 / interlaced=0 / bluray_compat=0 / constrained_intra=0 / bframes=8 / b_pyramid=2 / b_adapt=2 / b_bias=0 / direct=3 / weightb=1 / open_gop=0 / weightp=2 / keyint=250 / keyint_min=25 / scenecut=40 / intra_refresh=0 / rc_lookahead=60 / rc=crf / mbtree=1 / crf=18.0 / qcomp=0.60 / qpmin=0 / qpmax=69 / qpstep=4 / ip_ratio=1.40 / aq=1:1.00
Language : Ukrainian
Default : Yes
Forced : No

Audio
ID : 2
Format : AC-3
Format/Info : Audio Coding 3
Commercial name : Dolby Digital
Codec ID : A_AC3
Duration : 1 h 13 min
Bit rate mode : Constant
Bit rate : 192 kb/s
Channel(s) : 2 channels
Channel layout : L R
Sampling rate : 48.0 kHz
Frame rate : 31.250 FPS (1536 SPF)
Compression mode : Lossy
Stream size : 102 MiB (6%)
Title : Оригінал
Language : Ukrainian
Service kind : Complete Main
Default : Yes
Forced : No
Скріншоти:


Запис/зведення: sergiyko


Золотий реліз (завантажене не впливає на рейтинг)
 Трекер:    Зареєстрований   

Завантажити / скачати український фільм



відео для новачків



 Зареєстрований:   2019-12-16 02:51
 Розмір:   1.78 GB 
 Оцінка фільму:   8.5/10 (Голосів: 49)
   
taksist 
VIP


З нами з: 10.12.12
Востаннє: 14.10.20
Повідомлень: 551

2019-12-16 08:50  
якщо у лягавих і справді написи неукраїнською на однострої то це убого.
sergiyko.5 
Забанено
Забанено


З нами з: 25.02.16
Востаннє: 29.10.20
Повідомлень: 3648

2019-12-16 13:44  
Звукова доріжка цього релізу має стерео звучання та кращий спектр.
qarty1 
VIP


З нами з: 01.11.09
Востаннє: 27.02.21
Повідомлень: 411

2019-12-19 22:54  
фільм повне лайно, бездарна гра акторів, таке враження що актори грають повних дегенератів, гумору ноль, головне рекламу напихали від якої тушнить. Не рекомендую 1/10
sergiyko.5 
Забанено
Забанено


З нами з: 25.02.16
Востаннє: 29.10.20
Повідомлень: 3648

2019-12-19 22:57  
Мені фільм сподобався. Веселий, легкий, якраз до свята.
andriy_nv 
VIP


З нами з: 27.06.08
Востаннє: 28.02.21
Повідомлень: 1130

2019-12-22 18:17  
сюжет ніякий
на один раз

sir.ko 
Новенький


З нами з: 05.02.20
Востаннє: 10.02.21
Повідомлень: 8

2020-02-26 16:41  
Жаль, що неможливо поставити оцінку 0,5 бала! Це мабуть найдешевший шаблон з Голлівуду.
Навіть Вірастюк фільм не витягнув!!

sergiyko.5 
Забанено
Забанено


З нами з: 25.02.16
Востаннє: 29.10.20
Повідомлень: 3648

2020-02-26 16:46  
та хоч ноль став. Мені сподобався.
Аркадій Дзиґа 
VIP


З нами з: 09.10.14
Востаннє: 01.03.21
Повідомлень: 548

2020-03-31 03:03  
Погоджуюся зі всіма позитивними й неґативними відгуками. Сам для Себе вирішив завантажити і зберегти!
Virtгі 
Новенький


З нами з: 01.06.12
Востаннє: 27.02.21
Повідомлень: 16

2020-04-06 18:23  
Оскільки адекватна людина має видавати оцінку зважуючи на фон (тобто відносність реальності), то цьому фільму 9 з 10!
Тут є і дух і колорит...
А є ще в сюжеті абсолютно оригінальні рішення... і це в рамках теми виїждженої вздовж і впоперек Голівудом.
Єдиний великий мінус - ну справді нам вже давно пора перестати соромитись власної приналежності - у поліцейських мають бути українські шеврони. Практика доводить, що якщо контент якісний його придбають іноземці не дивлячись ні на які візуальні відмінності.

casper101 
VIP


З нами з: 03.12.09
Востаннє: 28.02.21
Повідомлень: 454

2020-04-10 18:36  
яка вікова аудиторія????
Andylutsk 
Новенький


З нами з: 04.05.12
Востаннє: 04.02.21
Повідомлень: 7

2020-05-25 21:48  
Нормальний легенький фільм, щоб під свято з дітьми подивитися.
Tytanhamon 
Новенький


З нами з: 27.03.10
Востаннє: 27.02.21
Повідомлень: 5

2021-01-06 21:54  
casper101 написано:
яка вікова аудиторія????

Після 100 г горілки саме те. На жаль, фільм доволі примітивний.

Kaynan 
Попереджень: 2
Попереджень: 2 


З нами з: 15.05.09
Востаннє: 27.02.21
Повідомлень: 14

2021-02-27 01:01  
Миле, яскраве дитяче кіно.
Вірастюк просто чудовий.
casper101 написано:
яка вікова аудиторія????

Оптимальна мабуть 3-10 років.

Ваш часовий пояс: GMT + 2 Години

Нова тема   Відповісти