Пригоди S Миколая (2018) 1080p

Нові коментарі

Нова тема   Відповісти
Автор Повідомлення
Anonymous 







2019-12-15 23:23  
Пригоди S Миколая (2018) 1080p

Пригоди S Миколая (2018) 1080p


Жанр: комедія
Країна: Україна



Кінокомпанія: Big Hand Films
Режисер: Семен Горов (Сергій Єгоров)
Актори: Марія Єфросініна, Пшемислав Ципріанськи, Максим Лучак, Іванна Бородай, Василь Вірастюк, Андрій Кронглевський, Віталій Ажнов, Тетяна Лаврушко, В'ячеслав Рак, Григорій Боковенко O.Torvald

Сюжет:
«Пригоди S Миколая», робоча назва «Груднева казка, або Пригоди С. Миколая» — сімейна комедія режисера Семена Горова, прем'єра відбулася 13 грудня 2018 року.

Стрічка розповідає про пригоди другокласника Артема, чия сім'я щойно переїхала з великого міста до будинку у Карпатах. До Артема напередодні Дня Святого Миколая неочікувано з'являється сам Миколай. Насправді це злодій в костюмі чарівника. Хлопчику разом з сестрою-підлітком і місцевими дітлахами доводиться проявити справжню згуртованість, сміливість і винахідливість, аби перемогти злодія і врятувати справжнього Святого.


Тривалість: 01:13:55
Якість:
Відео:
кодек:
розмір кадру: 1920 х 1080
бітрейт: 7800 кб/с

Аудіо:
мова: українська
переклад: оригінал
кодек: 2.0
бітрейт: 160 кб/с
Info
Код:
General
Unique ID                                : 277519144471187981062499350103128873060 (0xD0C83E386115752E8C75560403E51864)
Complete name                            : Пригоди S Миколая (2018) 1080p [Hurtom].
Format                                   :
Format version                           : Version 4
File size                                : 4.11 GiB
Duration                                 : 1 h 13 min
Overall bit rate                         : 7 960 kb/s
Movie name                               : Пригоди S Миколая (2018)
Encoded date                             : UTC 2019-12-15 20:54:30
Writing application                      : v30.1.0 ('Forever And More') 64-bit
Writing library                          : libebml v1.3.6 + v1.4.9
Cover                                    : Yes
Attachments                              : cover.jpg

Video
ID                                       : 1
Format                                   : AVC
Format/Info                              : Advanced Video Codec
Format profile                           : [email protected]
Format settings                          : CABAC / 6 Ref Frames
Format settings, CABAC                   : Yes
Format settings, ReFrames                : 6 frames
Codec ID                                 : V_MPEG4/ISO/AVC
Duration                                 : 1 h 13 min
Bit rate                                 : 7 800 kb/s
Width                                    : 1 920 pixels
Height                                   : 1 080 pixels
Display aspect ratio                     : 16:9
Frame rate mode                          : Constant
Frame rate                               : 25.000 FPS
Color space                              : YUV
Chroma subsampling                       : 4:2:0
Bit depth                                : 8 bits
Scan type                                : Progressive
Bits/(Pixel*Frame)                       : 0.150
Stream size                              : 4.03 GiB (98%)
Writing library                          : core 142 r2491 24e4fed
Encoding settings                        : cabac=1 / ref=6 / deblock=1:0:0 / analyse=0x3:0x113 / me=hex / subme=7 / psy=1 / psy_rd=1.00:0.00 / mixed_ref=1 / me_range=16 / chroma_me=1 / trellis=1 / 8x8dct=1 / cqm=0 / deadzone=21,11 / fast_pskip=1 / chroma_qp_offset=-2 / threads=12 / lookahead_threads=2 / sliced_threads=0 / nr=0 / decimate=1 / interlaced=0 / bluray_compat=0 / constrained_intra=0 / bframes=3 / b_pyramid=2 / b_adapt=1 / b_bias=0 / direct=1 / weightb=1 / open_gop=0 / weightp=2 / keyint=75 / keyint_min=7 / scenecut=0 / intra_refresh=0 / rc_lookahead=40 / rc=2pass / mbtree=1 / bitrate=7800 / ratetol=1.0 / qcomp=0.60 / qpmin=0 / qpmax=69 / qpstep=4 / cplxblur=20.0 / qblur=0.5 / ip_ratio=1.41 / aq=1:1.00
Language                                 : Ukrainian
Default                                  : Yes
Forced                                   : No

Audio
ID                                       : 2
Format                                   : LC
Format/Info                              : Advanced Audio Codec Low Complexity
Codec ID                                 : A_AAC-2
Duration                                 : 1 h 13 min
Bit rate                                 : 160 kb/s
Channel(s)                               : 2 channels
Channel layout                           : L R
Sampling rate                            : 48.0 kHz
Frame rate                               : 46.875 FPS (1024 SPF)
Compression mode                         : Lossy
Delay relative to video                  : -80 ms
Stream size                              : 84.6 MiB (2%)
Language                                 : Ukrainian
Default                                  : Yes
Forced                                   : Yes
Скріншоти





Джерело:


Золотий реліз (завантажене не впливає на рейтинг)
 Трекер:    Зареєстрований   

Завантажити / скачати український фільм



відео для новачків



 Зареєстрований:   2019-12-15 23:23
 Розмір:   4.11 GB 
 Оцінка фільму:   9/10 (Голосів: 65)
   
Anonymous 







2019-12-15 23:39  

601сан 
VIP


З нами з: 22.05.12
Востаннє: 02.03.21
Повідомлень: 351

2019-12-16 00:14  
Свято наближається Wide grin
Bohonek 
Свій


З нами з: 21.12.12
Востаннє: 02.03.21
Повідомлень: 144

2019-12-16 00:39  
S -це по законам толерастії, як Xmas?
Racer-X 
Новенький


З нами з: 21.12.13
Востаннє: 01.03.21
Повідомлень: 3

2019-12-17 14:47  
Anonymous
Дуже дякую за S Миколая. З Hаступаючим Новим Роком Всіх !!!

madagaskar1 
VIP


З нами з: 08.05.14
Востаннє: 02.03.21
Повідомлень: 930

2019-12-17 16:19  
це повна дурня з елементами Один у дома як завжди коломоєць тв просирає держані гроші.
а момент з лавиною то взагалі хрінь, таке враження що там взагалі половина б'юджету пішла на ту лавину котру спецом підривали для недофільму
4/10 - Вірастюк тягнув цей фільм як міг.

Torin2012 
Новенький


З нами з: 19.12.19
Востаннє: 26.01.21
Повідомлень: 5

2019-12-20 13:30  
Семен Горов кліпмейкер, тому фільм в цілому вийшов красивим, яскравим, цього не можна заперечити, навіть якщо розбивати фільм на 3хвилинні відрізки, то більшість з них виглядають цілком нормально і можна зробити кілька десят гарних трейлерів. Але разом вийшло щось на зразок нарізки штампів з хітових новорічних комедій, які вже бачив. З плюсів можна відзначити гру маленького хлопчика і харизму Вірастюка, та і в цілому нормальну гру акторів. Якби в нас фільми знімали режисери, а не кліпмейкери, то Василь міг би стати Українським Дуейном Джонсоном. Також впала в очі карикатурна тупість героїні маші Єфросиніної та її кіношної дочки, як на мене один з ударів під дих цьому фільму вже на самому початку. Коли Маша в сніг, посеред карпат, вилізла з фургону в туфлях на підборах, слава богу хоч була в пальто, а не в вечірньому платті. В цілому Горов зробив гарну картинку, а от сюжет і події, ну в кліпах це не так важливо.
solistu 
Новенький


З нами з: 19.06.12
Востаннє: 13.01.21
Повідомлень: 1

2019-12-23 12:07  
Дякую за фільми! Ви найкращі!
rakab 
Свій


З нами з: 02.08.09
Востаннє: 28.02.21
Повідомлень: 97

2019-12-25 12:31  
Не забувайте ставити оцінки на IMDB. Фільм - не шедевр, але подивившись, варто поставити, скільки він заслужив.
SHEVA1991 
Поважний учасник


З нами з: 29.11.12
Востаннє: 06.04.20
Повідомлень: 208

2019-12-29 21:00  
Прикольний фільм от тільки Єфросініна як еталон справжніх сук і курв які дуже багато шо хотять а самі повний нуль! А за реліз дякую))
0mage0 
VIP


З нами з: 06.10.15
Востаннє: 02.03.21
Повідомлень: 782

2020-01-05 19:42  
Загалом фільм вийшов поганий. Початок був ще так-сяк, а під кінець все скотилося в люте гониво на рівні дитячого ранку Sad (1)
Ну й окремо варто зазначити цю латинську літеру S в назві. Чому не назвати фільм українською — Пригоди Святого Миколи — абсолютно незрозуміло. Також нібито українська поліція повсюди з написами англійською - Police, на машині, на формі, на відділку. Певно, все це дісталось у спадок після знімання серіалів для московії, де повністю відсутні будь-які ознаки, що це знімалося в Україні. Хоча конкретно цей фільм явно не для цього, адже у фільмі повно інших вивісок українською мовою.

westigo 
Поважний учасник


З нами з: 07.04.19
Востаннє: 03.03.21
Повідомлень: 153

2020-01-09 20:38  
Дійсно гарний фільм. Дитячий, легкий, але в той же час дає змогу замислитися про людські цінності. Сім'я - це не просто слово, а ще й допомога, підтримка і розуміння. Також у фільмі багато легкого та гарного гумору.
uw5efy 
Новенький


З нами з: 26.06.19
Востаннє: 03.12.20
Повідомлень: 3

2020-02-28 22:43  
Рідкостне Г від студії Г+Г. Дивилися хвилин 15, більш не змогли.
[email protected] 
Новенький


З нами з: 09.10.16
Востаннє: 28.02.21
Повідомлень: 12

2021-01-01 23:13  
Що за хрінь???
Півтори години витраченого часу!!!
У фільм напхано рекламу світоча, укрпошти, нашого радіо, концертУА.
Гумор примітивний(намагається повтоити "Сам в дома")

А чого варті колядники на Миколая???

Події відбуваються в Укарїні, але поліція підписана POLICE

Схрестили грішне з праведним, бульдога з носорогом.

Мля...

Це повний алєс

Це "уйня на посном маслє"

Дно!!!

Це ще одне підтвердження що плюзи знімають уйню

б...ь , я не навиджу сценаристів цього фільму.

От скажіть чому за гроші знімають гівно, а те що тримається на ідеї та знято за копійки виглядає за це краще

В мене нема слів! Одна лайка.

Завершую

ФІЛЬМ ГАВНО не вартий витраченого часу на скачування

ecover.to 
Новенький


З нами з: 26.08.20
Востаннє: 01.03.21
Повідомлень: 3

2021-01-02 01:41  
10/10
Ваш часовий пояс: GMT + 2 Години

Нова тема   Відповісти