Правду мовлячи (Ти спиш?) (Сезон 1) / Truth Be Told (Season 1) (2019) 720p Eng | Sub Ukr/Eng

Нові коментарі

Нова тема   Відповісти
Автор Повідомлення
Anonymous 







2019-12-15 18:58  
Правду мовлячи (Ти спиш?) (Сезон 1) / Truth Be Told (Season 1) (2019) 720p Eng | Sub Ukr/Eng

Альтернативні постери:




Жанр: детектив, кримінальний, юридична драма, трилер
Країна: США



Кінокомпанія: Chernin Entertainment, Endeavor Content, Hello Sunshine, Orit Entertainment
Режисер: Сара Піа Андерсон / Sarah Pia Anderson, Міккель Ньоргор / Mikkel Nørgaard, Розмарі Родрігез / Rosemary Rodriguez
Актори: Октавія Спенсер / Octavia Spencer, Аарон Пол / Aaron Paul, Ліззі Каплан / Lizzy Caplan, Майкл Біч / Michael Beach, Мекхай Файфер / Mekhi Phifer, Трейсі Томс / Tracie Thoms, Ханіфа Вуд / Haneefah Wood, Рон Сефас Джонс / Ron Cephas Jones, Елізабет Перкінс / Elizabeth Perkins, Аннабелла Шорра / Annabella Sciorra, Бретт Каллен / Brett Cullen та інші

Сюжет:
Кримінальний трилер про ведучу програми про злочинність, яка випадково стала причиною ув'язнення безневинного молодого хлопця.

За сюжетом, знаменита ведуча детективного подкасту Поппі Парнелл (Октавія Спенсер) прославилася власними розслідуваннями різних злочинів. Вона збирає величезну аудиторію людей, які вірять їй. Для однієї з програм, Поппі розслідує жорстоке вбивство і швидко знаходить людину, яка ймовірно цей злочин. Ним виявляється молодий хлопець Воррен Кейв. Агрументи Поппі стають вирішальними на суді і хлопця відправляють до в'язниці. Однак навіть там Воррен продовжує наполягати на своїй невинуватості. А через деякий час в цій справі виявляються абсолютно нові деталі. Поппі розуміє, що вона цілком могла відправити за ґрати невинну людину, тому знову повертається до розслідування…

Засновано на романі Кетлін Барбер "Ти спиш?" (Kathleen Barber - Are You Sleeping)
Офіційний трейлер:


Рейтинг у США: TV-MA - не рекомендується до перегляду дітьми до 17 років
Вікова категорія: 18+

Тривалість: 1 серія x 39 ÷ 45 хв. (всього серій: 8)
Перелік серій:
1 Monster
2 Black People in the Neighborhood
3 Even Salt Looks Like Sugar
4 No Cross, No Crown
5 Graveyard Love
6 Not Buried, Planted
7 Live Thru This
8 All That Was Lost
Якість: 720p
Відео:
кодек:
розмір кадру: 1412 х 650
бітрейт: 2811 ÷ 2907 кб/с

Аудіо:
мова: англійська
переклад: оригінал
кодек: 5.1
бітрейт: 448 кб/с

Субтитри # 1:
мова: українська
тип: програмні (м'які)
формат: *.srt
переклад: Наталія Наконечна
коригування*: igor911
* виправлено помилкове форматування (був відсутній символ переносу стрічки в дворядкових репліках в деяких серіях, як там https://toloka.to/t105339#1141552)

Субтитри # 2-3:
мова: англійська (повні, SDH)
тип: програмні (м'які)
формат: *.srt
Info
Код:

Complete name               : S01E01.Truth Be Told (2019) [Eng sub.Ukr,Eng] 720p [Hurtom].
Format                      :
Format version              : Version 4
File size                   : 1.07 GiB
Duration                    : 45 min 39 s
Overall bit rate            : 3 357 kb/s
Movie name                  : S01E01 [Monster] Правду мовлячи / Ти спиш? / Truth Be Told (2019) [Eng sub.Ukr,Eng] 720p [Hurtom]
Encoded date                : UTC 2020-02-02 10:18:36
Writing application         : v43.0.0 ('The Quartermaster') 64-bit
Writing library             : libebml v1.3.10 + v1.5.2
Cover                       : Yes
Attachments                 : cover.jpg

Video
ID                          : 1
Format                      : AVC
Format/Info                 : Advanced Video Codec
Format profile              : [email protected]
Format settings             : CABAC / 5 Ref Frames
Format settings, CABAC      : Yes
Format settings, Reference  : 5 frames
Codec ID                    : V_MPEG4/ISO/AVC
Duration                    : 45 min 39 s
Bit rate                    : 2 907 kb/s
Width                       : 1 412 pixels
Height                      : 650 pixels
Display aspect ratio        : 2.2:1
Frame rate mode             : Constant
Frame rate                  : 23.976 (24000/1001) FPS
Color space                 : YUV
Chroma subsampling          : 4:2:0
Bit depth                   : 8 bits
Scan type                   : Progressive
Bits/(Pixel*Frame)          : 0.132
Stream size                 : 949 MiB (87%)
Title                       : S01E01 Правду мовлячи / Ти спиш? / Truth Be Told (2019) 720p [TOMMY]
Language                    : English
Default                     : Yes
Forced                      : No
Color range                 : Limited
Color primaries             : BT.709
Transfer characteristics    : BT.709
Matrix coefficients         : BT.709

Audio
ID                          : 2
Format                      : AC-3
Format/Info                 : Audio Coding 3
Commercial name             : Dolby Digital
Codec ID                    : A_AC3
Duration                    : 45 min 39 s
Bit rate mode               : Constant
Bit rate                    : 448 kb/s
Channel(s)                  : 6 channels
Channel layout              : L R C LFE Ls Rs
Sampling rate               : 48.0 kHz
Frame rate                  : 31.250 FPS (1536 SPF)
Compression mode            : Lossy
Stream size                 : 146 MiB (13%)
Language                    : English
Service kind                : Complete Main
Default                     : Yes
Forced                      : No

Text #1
ID                          : 3
Format                      : UTF-8
Codec ID                    : S_TEXT/UTF8
Codec ID/Info               : UTF-8 Plain Text
Duration                    : 43 min 39 s
Bit rate                    : 114 b/s
Count of elements           : 660
Stream size                 : 36.5 KiB (0%)
Title                       : Ukr Full [Apple TV+]
Language                    : Ukrainian
Default                     : Yes
Forced                      : Yes

Text #2
ID                          : 4
Format                      : UTF-8
Codec ID                    : S_TEXT/UTF8
Codec ID/Info               : UTF-8 Plain Text
Duration                    : 43 min 22 s
Bit rate                    : 72 b/s
Count of elements           : 637
Stream size                 : 22.9 KiB (0%)
Title                       : Eng Full
Language                    : English
Default                     : No
Forced                      : No

Text #3
ID                          : 5
Format                      : UTF-8
Codec ID                    : S_TEXT/UTF8
Codec ID/Info               : UTF-8 Plain Text
Duration                    : 43 min 32 s
Bit rate                    : 79 b/s
Count of elements           : 734
Stream size                 : 25.3 KiB (0%)
Title                       : Eng SDH
Language                    : English
Default                     : No
Forced                      : No


Джерело: &


Бронзовий реліз (на рейтинг впливає 75% завантаженого)
 Трекер:    Зареєстрований   

Завантажити / скачати серіал українською



відео для новачків



 Зареєстрований:   2020-02-02 21:17
 Розмір:   8.13 GB 
 Оцінка серіалу:   9.6/10 (Голосів: 5)
 ЗАЛИШАЙТЕСЬ ЯКОМОГА ДОВШЕ НА РОЗДАЧІ! ЗАВАНТАЖИВ САМ - ДАЙ ЗАВАНТАЖИТИ ІНШИМ!
   
Done56 
VIP


З нами з: 23.11.15
Востаннє: 28.11.20
Повідомлень: 585

2019-12-15 20:31  
Коли над серіалом працює багато режисерів - це має бути хороший серіал. Ще показником є кількість сценаристів.
bot 
робот


З нами з: 30.09.07
Востаннє: 26.05.05
Повідомлень: 26384

2020-02-02 21:17  
Тему перенесено з Анонси релізів до форуму Телесеріали


igor911

volianek20 
Новенький


З нами з: 22.10.13
Востаннє: 27.11.20
Повідомлень: 4

2020-02-03 15:36  
Завантажило 45 % і стоїть
Anonymous 







2020-02-03 16:02  
volianek20 написано:
Завантажило 45 % і стоїть

95% - закритий порт для вхідних з'єднань, 5% - у вас низький рейтинг (0,01)

tmturka 
Новенький


З нами з: 20.02.11
Востаннє: 18.11.20
Повідомлень: 7

2020-04-25 18:19  
не завантажується.
Max777 
Новенький


З нами з: 02.04.10
Востаннє: 15.11.20
Повідомлень: 6

2020-05-07 22:32  
Дійшло 94% +/- по всім серіям та стоїть... Інші речі літають, рейтинг в порядку.
Люди добрі, станьте хтось на роздачу будь ласочка.

Anonymous 







2020-05-07 22:45  
Max777, роздаю цілодобово, але в мене "сіра" айпі-адреса, тому порти для вхідних з'єднань закриті. А вас показує, ніби ви з Нігерії намагаєтесь завантажити. Якщо у вас VPN/проксі - спробуйте щось в себе підлаштувати.
Max777 
Новенький


З нами з: 02.04.10
Востаннє: 15.11.20
Повідомлень: 6

2020-05-08 09:00  
Anonymous
Та я реально в Нігерії :-)

Anonymous 







2020-05-08 09:50  
Max777, на жаль, успішна роздача можлива лише при наявності відкритого порта для вхідних з'єднань торент-клієнта хоча б в одного учасника файлообміну. Схоже, що зараз у всіх 4х порти закриті.

Додано через 3 хвилини 8 секунд:

Шукайте спосіб завантаження з каналу з "білою" айпі-адресою в себе або доведеться чекати появи на роздачі ще когось з відкритим портом.

Додано через 2 хвилини 53 секунди:

Поки писав - роздача пішла до п.paulatreides, сподіваюсь у вас також піде через нього.

Max777 
Новенький


З нами з: 02.04.10
Востаннє: 15.11.20
Повідомлень: 6

2020-05-08 10:55  
Все зайшло! Всім дякую!
Нажаль Інтернет тільки нігерійський і тільки мобільний, що накладає купу різних обмежень.

Ваш часовий пояс: GMT + 2 Години

Нова тема   Відповісти