Біонікл: Відродження легенди / Bionicle: The Legend Reborn (2009) 1080p Ukr/Eng | Sub Ukr/Eng

Нові коментарі

Нова тема   Відповісти
Автор Повідомлення
Anonymous 







2019-12-14 11:23  
Біонікл: Відродження легенди / Bionicle: The Legend Reborn (2009) 1080p Ukr/Eng | Sub Ukr/Eng

Біонікл: Відродження легенди / Bionicle: The Legend Reborn (2009) 1080p Ukr/Eng | Sub Ukr/Eng


Жанр: анімація, пригодницький
Країна: США



Кінокомпанія: LEGO, Threshold Animation Studios, Tinseltown Toons
Режисер: Марк Балдо / Mark Baldo
Актори: Джефф Беннетт, Джим Каммінгс, Майкл Дорн, Марк Фаміглетті

Сюжет:
Мата Нуї, колись великий і могутній лідер, прокинувся на захаращеній металобрухтом пустці далеко від дому. Після перемоги в змаганнях гладіаторів місцеві жителі просять його битися з реальними ворогами: жорстоким Скраллом і Мисливцями за кістками. Разом з відважною командою гладіаторів і селян Агори Мата Нуї відправляється в епічну подорож в нові невідомі країни, щоб розкрити дивовижні таємниці «Біонікл».


Тривалість: 01:20:38
Якість: 1080p
Відео:
кодек:
розмір кадру: 1920х1080
бітрейт: 7066 кб/с

Аудіо # 1:
мова: українська
переклад: багатоголосий закадровий | TET
кодек: 2.0
бітрейт: 192 кб/с

Аудіо # 2:
мова: англійська
переклад: оригінал
кодек: A-EAC3 5.1
бітрейт: 640 кб/с

Субтитри:
мова: українська
тип: програмні (м'які)
формат: *.srt

Субтитри:
мова: англійська
тип: програмні (м'які)
формат: *.srt
Info
General
Unique ID : 227274209243119712720167733422151974779 (0xAAFB6BA6FD9CBF8D83C3C4AAE9943F7B)
Complete name : H:\Toloka\2019\Bionicle. The Legend Reborn (2009) 1080p.
Format :
Format version : Version 4
File size : 4.54 GiB
Duration : 1 h 20 min
Overall bit rate mode : Variable
Overall bit rate : 8 058 kb/s
Encoded date : UTC 2019-12-14 09:08:58
Writing application : v6.1.0 ('Old Devil') built on Mar 4 2013 09:10:42
Writing library : libebml v1.3.0 + v1.4.0

Video
ID : 1
Format : AVC
Format/Info : Advanced Video Codec
Format profile : [email protected]
Format settings : CABAC / 4 Ref Frames
Format settings, CABAC : Yes
Format settings, RefFrames : 4 frames
Codec ID : V_MPEG4/ISO/AVC
Duration : 1 h 20 min
Bit rate mode : Variable
Bit rate : 7 066 kb/s
Maximum bit rate : 15.0 Mb/s
Width : 1 920 pixels
Height : 1 080 pixels
Display aspect ratio : 16:9
Frame rate mode : Constant
Frame rate : 23.976 (24000/1001) FPS
Color space : YUV
Chroma subsampling : 4:2:0
Bit depth : 8 bits
Scan type : Progressive
Bits/(Pixel*Frame) : 0.142
Stream size : 3.98 GiB (88%)
Default : Yes
Forced : No
Color range : Limited
Color primaries : BT.709
Transfer characteristics : BT.709
Matrix coefficients : BT.709
Statistics Tags Issue : v21.0.0 ('Tardigrades Will Inherit The Earth') 64-bit 2018-07-15 16:23:28 / v6.1.0 ('Old Devil') built on Mar 4 2013 09:10:42 2019-12-14 09:08:58
FromStats_BitRate : 7224673
FromStats_Duration : 01:20:37.541000000
FromStats_FrameCount : 115985
FromStats_StreamSize : 4368706800

Audio #1
ID : 2
Format : AC-3
Format/Info : Audio Coding 3
Commercial name : Dolby Digital
Codec ID : A_AC3
Duration : 1 h 20 min
Bit rate mode : Constant
Bit rate : 192 kb/s
Channel(s) : 2 channels
Channel layout : L R
Sampling rate : 48.0 kHz
Frame rate : 31.250 FPS (1536 SPF)
Bit depth : 16 bits
Compression mode : Lossy
Stream size : 111 MiB (2%)
Title : UKR
Language : Ukrainian
Service kind : Complete Main
Default : Yes
Forced : Yes

Audio #2
ID : 3
Format : E-AC-3
Format/Info : Enhanced AC-3
Commercial name : Dolby Digital Plus
Codec ID : A_EAC3
Duration : 1 h 20 min
Bit rate mode : Constant
Bit rate : 640 kb/s
Channel(s) : 6 channels
Channel layout : L R C LFE Ls Rs
Sampling rate : 48.0 kHz
Frame rate : 31.250 FPS (1536 SPF)
Compression mode : Lossy
Delay relative to video : 4 ms
Stream size : 369 MiB (8%)
Language : English
Service kind : Complete Main
Default : No
Forced : No
Statistics Tags Issue : v21.0.0 ('Tardigrades Will Inherit The Earth') 64-bit 2018-07-15 16:23:28 / v6.1.0 ('Old Devil') built on Mar 4 2013 09:10:42 2019-12-14 09:08:58
FromStats_BitRate : 640000
FromStats_Duration : 01:20:37.472000000
FromStats_FrameCount : 151171
FromStats_StreamSize : 386997760

Text #1
ID : 4
Format : UTF-8
Codec ID : S_TEXT/UTF8
Codec ID/Info : UTF-8 Plain Text
Title : UKR
Language : Ukrainian
Default : Yes
Forced : No

Text #2
ID : 5
Format : UTF-8
Codec ID : S_TEXT/UTF8
Codec ID/Info : UTF-8 Plain Text
Language : English
Default : No
Forced : No
Statistics Tags Issue : v21.0.0 ('Tardigrades Will Inherit The Earth') 64-bit 2018-07-15 16:23:28 / v6.1.0 ('Old Devil') built on Mar 4 2013 09:10:42 2019-12-14 09:08:58
FromStats_BitRate : 43
FromStats_Duration : 01:13:01.744000000
FromStats_FrameCount : 705
FromStats_StreamSize : 23817

Text #3
ID : 6
Format : UTF-8
Codec ID : S_TEXT/UTF8
Codec ID/Info : UTF-8 Plain Text
Title : SDH
Language : English
Default : No
Forced : No
Statistics Tags Issue : v21.0.0 ('Tardigrades Will Inherit The Earth') 64-bit 2018-07-15 16:23:28 / v6.1.0 ('Old Devil') built on Mar 4 2013 09:10:42 2019-12-14 09:08:58
FromStats_BitRate : 46
FromStats_Duration : 01:13:27.036000000
FromStats_FrameCount : 839
FromStats_StreamSize : 25447

Menu
00:00:00.000 : en:FBI Warning
00:00:01.820 : en:Studio logo
00:00:32.820 : en:Mata Nui narrates his imprisonment & the origins of the Mask of Life & Opening Credits, Mata Nui's planet & cosmic travel sequence
00:03:57.820 : en:Mata Nui takes his first careful steps & is attacked, crater onBara Magna
00:07:47.820 : en:Mata Nui meets Metus, Bara Magna wastes
00:09:41.820 : en:Metus tells Mata Nui about life on Bara Magna, Bara Magna wastes
00:11:29.820 : en:Metus shows Mata Nui a gladiator battle & meets Raanu, gladiator pit
00:13:45.820 : en:Strakk takes advantage, gladiator pit
00:15:28.820 : en:Mata Nui rushes to Ackar's defense, gladiator pit
00:18:14.820 : en:Mata Nui rejects Metus's offer, Ackar's home
00:20:07.820 : en:Mata Nui proves Kina right, Ackar's home
00:22:35.820 : en:Mata Nui & his friends head to Kina's cavern as hostile eyes watch, wastes near Tajun
00:23:48.820 : en:The three battle an ambush & a tremendous desert monster, wastes near Tajun
00:28:12.820 : en:Kina finds her village in ruins, ruins of Tajun
00:31:36.820 : en:Kina guides her friends to a secret cave, elemental caverns
00:33:14.820 : en:The companions find Berix & Kina tells Mata Nui her theory regarding the origins of their world, elemental caverns
00:36:27.820 : en:Mata Nui recognizes something shocking, secret cavern
00:37:48.820 : en:Mata Nui discovers he has a propensity for enchanting weapons, elemental caverns
00:40:12.820 : en:The companions experiment with their new powers, highway
00:42:19.820 : en:The companions reach Tasara & Kina accuses Berix of being a spy, Tasara
00:44:31.820 : en:Ackar interrupts a gladiator battle to tell the Tesarans of the danger in the wastes, Tesaran gladiator pit
00:46:16.820 : en:Mata Nui demonstrates his abilities, Tesaran gladiator pit
00:49:14.820 : en:Kina follows Berix only to be caught in an ambush, hot springs
00:50:39.820 : en:Mata Nui opts to pursue Kina's abductors alone, Tesara
00:52:05.820 : en:Mata Nui notices something as the villages are drawn together for safety, hills above Tesara
00:53:59.820 : en:Kina & Berix decide to share the secret cavern as Mata Nui prepares to confront Tuma, Skrell compound
00:56:20.820 : en:Mata Nui & Tuma duel, Skrall arena
00:59:47.820 : en:Mata Nui discovers the identity of the traitor & Click returns with friends, Skrall arena
01:02:38.820 : en:The others arrive & the Skrell are routed, Skrell compound
01:05:16.820 : en:The others battle the Skrell with their elemental powers as Mata Nui pursues Metus, Skrell wasteland
01:08:56.820 : en:Berix is missing, Skrell wasteland
01:10:18.820 : en:Mata Nui's work reveals an enormous new mystery, hills above Tesara
01:14:05.820 : en:End credits
01:17:16.820 : en:End credits
Скріншоти





За українську доріжку і субтитри подяка п. НТН
Особиста подяка пану denixx за надану матеріальну допомогу на підтримку цього і майбутніх релізів.
Джерело:


 Трекер:    Зареєстрований   

Завантажити / скачати мультфільм українською



відео для новачків



 Зареєстрований:   2019-12-14 11:23
 Розмір:   4.54 GB 
 Оцінка мультфільму:   9.3/10 (Голосів: 6)
   
Jeksomoff 
Новенький


З нами з: 19.04.20
Востаннє: 27.02.21
Повідомлень: 2

2020-04-20 08:55  
Вітаю, панове. Чи може хтось роздати цей мульт? Бо не завантажує.
missU 
Новенький


З нами з: 22.11.11
Востаннє: 06.03.21
Повідомлень: 11

2021-03-03 18:40  
ап роздачу плз
missU 
Новенький


З нами з: 22.11.11
Востаннє: 06.03.21
Повідомлень: 11

2021-03-04 13:17  
Народ встаньте на роздачу
Ваш часовий пояс: GMT + 2 Години

Нова тема   Відповісти