Робокоп / RoboCop [Unrated Director's Cut] (1987) AVC Ukr/Eng | sub Eng

Нові коментарі

Нова тема   Відповісти
Автор Повідомлення
Arsenfpu 
Відео Гуртом - фільмокрай
Відео Гуртом - фільмокрай


З нами з: 30.04.09
Востаннє: 06.07.20
Повідомлень: 7042

2019-12-14 01:17  
Робокоп / RoboCop [Unrated Director's Cut] (1987) AVC Ukr/Eng | sub Eng

Робокоп / RoboCop [Unrated Director's Cut] (1987) AVC Ukr/Eng | sub Eng


Жанр: фантастика, бойовик, трилер, драма, кримінальний
Країна: США



Кінокомпанія: Metro Goldwyn Mayer
Режисер: Пол Верховен
Актори: Пітер Веллер, Ненсі Аллен, Ден О'Херліхі, Мігель Феррер, Рей Вайз

Сюжет:
Загрузлий в корупції і злочинності Детройт потребує ефективного і невразливого засобу боротьби з кримінальними елементами. Молодому конструктору Мортону потрібен тільки момент, щоб втілити в життя свою мрію - сконструювати Робота-поліцейського. Узявши тіло убитого в перестрілці поліцейського Мерфі, Мортон здійснює свою ідею, і створює робота, появу якого чекав не тільки він, але і інші, охочі використовувати машину в корисливих цілях ... Єдиний, хто бачить в роботі частинку людського - це колишній напарник Мерфі. Тепер, разом з нею, Робот-поліцейський виходить на вулиці міста, бажаючи знайти тих, хто убив Мерфі і помститися їм ...


Тривалість: 01:43:16
Якість:
Відео:
кодек:
розмір кадру: 1 024 х 560
бітрейт: 2 499 кб/с

Аудіо # 1:
мова: українська
переклад: багатоголосий закадровий ,
кодек: 2.0
бітрейт: 192 кб/с

Аудіо # 2:
мова: англійська
переклад: оригінал
кодек: 2.0
бітрейт: 192 кб/с

Субтитри:
мова: англійська
тип: програмні (м'які)
формат: *.srt
Про файл
General
Unique ID : 37607566760468714550582704872571581642 (0x1C4AF432867164D769539401A99CB4CA)
Complete name : C:\RoboCop (1987) [Ukr,Eng] AVC [Hurtom].
Format :
Format version : Version 4 / Version 2
File size : 2.09 GiB
Duration : 1 h 43 min
Overall bit rate : 2 894 kb/s
Movie name : Робокоп / RoboCop [Unrated Director's Cut] (1987)
Encoded date : UTC 2019-12-13 21:49:54
Writing application : v21.0.0 ('Tardigrades Will Inherit The Earth') 32-bit
Writing library : libebml v1.3.5 + v1.4.8
Cover : Yes
Attachments : cover.jpg

Video
ID : 1
Format : AVC
Format/Info : Advanced Video Codec
Format profile : [email protected]
Format settings, CABAC : Yes
Format settings, ReFrames : 4 frames
Codec ID : V_MPEG4/ISO/AVC
Duration : 1 h 43 min
Bit rate : 2 499 kb/s
Width : 1 024 pixels
Height : 560 pixels
Display aspect ratio : 1.85:1
Frame rate mode : Constant
Frame rate : 23.976 (24000/1001) FPS
Color space : YUV
Chroma subsampling : 4:2:0
Bit depth : 8 bits
Scan type : Progressive
Bits/(Pixel*Frame) : 0.182
Stream size : 1.80 GiB (86%)
Writing library : core 157 r2935 545de2f
Encoding settings : cabac=1 / ref=3 / deblock=1:-1:-1 / analyse=0x3:0x113 / me=hex / subme=7 / psy=1 / psy_rd=1.00:0.15 / mixed_ref=1 / me_range=16 / chroma_me=1 / trellis=1 / 8x8dct=1 / cqm=0 / deadzone=21,11 / fast_pskip=1 / chroma_qp_offset=-3 / threads=12 / lookahead_threads=2 / sliced_threads=0 / nr=0 / decimate=1 / interlaced=0 / bluray_compat=0 / constrained_intra=0 / bframes=3 / b_pyramid=2 / b_adapt=1 / b_bias=0 / direct=1 / weightb=1 / open_gop=0 / weightp=2 / keyint=240 / keyint_min=23 / scenecut=40 / intra_refresh=0 / rc_lookahead=40 / rc=2pass / mbtree=1 / bitrate=2499 / ratetol=1.0 / qcomp=0.60 / qpmin=0 / qpmax=69 / qpstep=4 / cplxblur=20.0 / qblur=0.5 / ip_ratio=1.40 / aq=1:1.00
Default : Yes
Forced : No

Audio #1
ID : 2
Format : AC-3
Format/Info : Audio Coding 3
Mode extension : CM (complete main)
Format settings, Endianness : Big
Codec ID : A_AC3
Duration : 1 h 43 min
Bit rate mode : Constant
Bit rate : 192 kb/s
Channel(s) : 2 channels
Channel positions : Front: L R
Sampling rate : 48.0 kHz
Frame rate : 31.250 FPS (1536 spf)
Compression mode : Lossy
Stream size : 142 MiB (7%)
Title : 2+2
Language : Ukrainian
Default : Yes
Forced : Yes

Audio #2
ID : 3
Format : AC-3
Format/Info : Audio Coding 3
Mode extension : CM (complete main)
Format settings, Endianness : Big
Codec ID : A_AC3
Duration : 1 h 43 min
Bit rate mode : Constant
Bit rate : 192 kb/s
Channel(s) : 2 channels
Channel positions : Front: L R
Sampling rate : 48.0 kHz
Frame rate : 31.250 FPS (1536 spf)
Compression mode : Lossy
Stream size : 142 MiB (7%)
Language : English
Default : No
Forced : No

Text
ID : 4
Format : PGS
Muxing mode : zlib
Codec ID : S_HDMV/PGS
Codec ID/Info : Picture based subtitle format used on BDs/HD-DVDs
Duration : 1 h 36 min
Bit rate : 37.2 kb/s
Count of elements : 2658
Stream size : 25.6 MiB (1%)
Language : English
Default : Yes
Forced : No
Скріншоти














Джерело:
За український звук дякую п. Bohdan237, Romario_O
За постер дякую пану d1mmі
Особиста оцінка: у свій час це був вибух мозку!



Срібний реліз (на рейтинг впливає 50% завантаженого)
 Трекер:    Зареєстрований   

Завантажити / скачати фільм українською



відео для новачків



 Зареєстрований:   2019-12-14 01:17
 Розмір:   2.09 GB 
 Оцінка фільму:   9.5/10 (Голосів: 19)
   
Інші релізи
   Робокоп / RoboCop [Unrated Director's Cut] (1987) Ukr/Eng Romario_O  6 / 0   2.18 GB   2009-05-03 21:27 
madagaskar1 
VIP


З нами з: 08.05.14
Востаннє: 05.07.20
Повідомлень: 902

2019-12-14 10:58  
Arsenfpu написано:
Unrated Director's Cut

є місця без перекладу? чи це доозвучений запис?

Arsenfpu 
Відео Гуртом - фільмокрай
Відео Гуртом - фільмокрай


З нами з: 30.04.09
Востаннє: 06.07.20
Повідомлень: 7042

2019-12-14 11:38  
madagaskar1 написано:
є місця без перекладу?

Немає.

Комбат1995 
Поважний учасник


З нами з: 09.01.16
Востаннє: 06.07.20
Повідомлень: 154

2019-12-14 13:58  
Класна озвучка...Стальчук, В. Терещук, Зіновенко...
robotron005 
Відео Гуртом - фільмокрай
Відео Гуртом - фільмокрай


З нами з: 29.01.09
Востаннє: 06.07.20
Повідомлень: 3335

2019-12-14 18:37  
Комбат1995 написано:
Класна озвучка...Стальчук, В. Терещук, Зіновенко...


ІНТЕРівська.

+380954897458 
VIP


З нами з: 02.06.17
Востаннє: 07.07.20
Повідомлень: 884

2019-12-14 20:12  
robotron005 написано:
Особиста оцінка: у свій час це був вибух мозку!

Це й зараз вибух мозку. Сучасна казочка з Гері Олдменом - дитячі пустощі. А це суворе чоловіче кіно, безкомпромісне і жорстоке, яке передивляюся час від часу з насолодою. Пол Веховен називає "Робокопа" своїм найулюбленішим фільмом. :-))

R.V.V. 
Поважний учасник


З нами з: 09.03.19
Востаннє: 04.07.20
Повідомлень: 221

2019-12-14 23:08  
Звук від "Tak Treba". Він до ремастованої версії.
MakRA 
VIP


З нами з: 11.11.18
Востаннє: 07.07.20
Повідомлень: 1085

2019-12-16 01:12  
+ Remux 1080p (Director's Cut)
Maters 
Відео Гуртом - підтримка та поширення
Відео Гуртом - підтримка та поширення


З нами з: 27.03.12
Востаннє: 06.07.20
Повідомлень: 2250

2020-04-20 21:53  
Захотілось згадати дитинство та й передивився ще раз. Ну, як на той час, то фільм дуже сильний.
Шукаючи цей фільм побачив і згадав, що в 2014 щось там перезнімали і я його теж дивився колись. Але оригінал є оригінал ))

Ваш часовий пояс: GMT + 2 Години

Нова тема   Відповісти