Чарівник країни Оз / The Wizard of Oz (1939) UHD 4K 2160p HDR10 H.265 Ukr/Eng | Sub Eng

Нові коментарі

Нова тема   Відповісти
Автор Повідомлення
Babamin 
Свій


З нами з: 29.12.15
Востаннє: 06.09.20
Повідомлень: 68

2019-12-13 21:27  
Чарівник країни Оз / The Wizard of Oz (1939) UHD 4K 2160p HDR10 H.265 Ukr/Eng | Sub Eng

Чарівник країни Оз / The Wizard of Oz (1939) UHD 4K 2160p HDR10 H.265 Ukr/Eng | Sub Eng
Альтернативний постер:




Жанр: мюзикл
Країна: США



Кінокомпанія: Metro-Goldwyn-Mayer
Режисер: Віктор Флемінґ
Актори: Джуді Гарленд, Френк Морган, Рей Болгер, Берт Лар, Джек Гейлі, Біллі Берк, Маргарет Гамільтон, Чарлі Грейпвін, Клара Блендік

Сюжет:
Школярка Дороті живе в Канзасі зі своєю сім'єю та цуценям Тото. Але одного разу буревій відносить її та Тото разом з будиночком в казкову країну маленьких людей, де вона знаходить нових друзів та стає володаркою чарівних червоних черевичків. Дороті, Тото та друзі подорожують жовтою цегляною дорогою в Смарагдове місто, щоб просити всемогутнього чарівника допомогти Дороті повернутися додому, а друзям — виконати їхні заповітні бажання. Але зла відьма хоче забрати чарівні черевички і Дороті загрожує серйозна небезпека.


Перекладено та озвучено студією "Омікрон" на замовлення HURTOM.COM


Тривалість: 01:41:48
Якість: UltraHD 4K 2160p
Контейнер:

Відео:
кодек: H.265
розмір кадру: 2960 х 2160
бітрейт: 27,5 Мб/с
бітова глибина: 10 біт
кольоровий простір: BT.2020 (HDR)

Аудіо # 1:
мова: українська
переклад: багатоголосий закадровий (повне озвучення) | Омікрон
кодек: -HD MA 5.1
бітрейт: 2142 кб/с

Аудіо # 2:
мова: англійська
переклад: оригінал
кодек: TRUE-HD 5.1
бітрейт: 1308 кб/с

Аудіо # 3:
мова: англійська
переклад: оригінал
кодек: 5.1
бітрейт: 640 кб/с

Субтитри
мова: англійська (full)
тип: програмні (м'які)
формат: *.srt
Info:
General
Complete name : The.Wizard.of.Oz.1939.UHD-.4K.2160p.HDR.x265-Hurtom.
Format :
Format version : Version 4
File size : 22.5 GiB
Duration : 1 h 41 min
Overall bit rate mode : Variable
Overall bit rate : 31.6 Mb/s
Movie name : The Wizard of Oz (1939) UHD- 4K 2160p HDR10 x265 -Hurtom
Encoded date : UTC 2019-12-13 17:03:08
Writing application : v40.0.0 ('Old Town Road + Pony') 64-bit
Writing library : libebml v1.3.9 + v1.5.2

Video
ID : 1
Format : HEVC
Format/Info : High Efficiency Video Coding
Format profile : Main [email protected]@High
HDR format : SMPTE ST 2086, HDR10 compatible
Codec ID : V_MPEGH/ISO/HEVC
Duration : 1 h 41 min
Bit rate : 27.5 Mb/s
Width : 2 960 pixels
Height : 2 160 pixels
Display aspect ratio : 1.370
Frame rate mode : Constant
Frame rate : 23.976 (24000/1001) FPS
Color space : YUV
Chroma subsampling : 4:2:0 (Type 2)
Bit depth : 10 bits
Bits/(Pixel*Frame) : 0.179
Stream size : 19.5 GiB (87%)
Title : -Hurtom
Language : English
Default : Yes
Forced : No
Color range : Limited
Color primaries : BT.2020
Transfer characteristics : PQ
Matrix coefficients : BT.2020 non-constant
Mastering display color primaries : Display P3
Mastering display luminance : min: 0.0050 cd/m2, max: 4000 cd/m2
Maximum Content Light Level : 2000 cd/m2
Maximum Frame-Average Light Level : 76 cd/m2

Audio #1
ID : 2
Format : XLL
Format/Info : Digital Theater Systems
Commercial name : -HD Master Audio
Codec ID : A_DTS
Duration : 1 h 41 min
Bit rate mode : Variable
Bit rate : 2 142 kb/s
Channel(s) : 6 channels
Channel layout : C L R Ls Rs LFE
Sampling rate : 48.0 kHz
Frame rate : 93.750 FPS (512 SPF)
Bit depth : 16 bits
Compression mode : Lossless
Stream size : 1.52 GiB (7%)
Title : MVO "Omicron"
Language : Ukrainian
Default : Yes
Forced : No

Audio #2
ID : 3
Format : MLP FBA
Format/Info : Meridian Lossless Packing FBA
Commercial name : Dolby TrueHD
Codec ID : A_TRUEHD
Duration : 1 h 41 min
Bit rate mode : Variable
Bit rate : 1 308 kb/s
Maximum bit rate : 1 782 kb/s
Channel(s) : 6 channels
Channel layout : L R C LFE Ls Rs
Sampling rate : 48.0 kHz
Frame rate : 1 200.000 FPS (40 SPF)
Compression mode : Lossless
Stream size : 952 MiB (4%)
Language : English
Default : No
Forced : No

Audio #3
ID : 4
Format : AC-3
Format/Info : Audio Coding 3
Commercial name : Dolby Digital
Codec ID : A_AC3
Duration : 1 h 41 min
Bit rate mode : Constant
Bit rate : 640 kb/s
Channel(s) : 6 channels
Channel layout : L R C LFE Ls Rs
Sampling rate : 48.0 kHz
Frame rate : 31.250 FPS (1536 SPF)
Bit depth : 16 bits
Compression mode : Lossy
Stream size : 466 MiB (2%)
Language : English
Service kind : Complete Main
Default : No
Forced : No

Text
ID : 5
Format : UTF-8
Codec ID : S_TEXT/UTF8
Codec ID/Info : UTF-8 Plain Text
Duration : 1 h 39 min
Bit rate : 73 b/s
Count of elements : 1487
Stream size : 53.3 KiB (0%)
Language : English
Default : No
Forced : No

Menu
00:00:00.000 : :Chapter 01
00:01:35.303 : :Chapter 02
00:01:54.823 : :Chapter 03
00:05:48.348 : :Chapter 04
00:08:02.064 : :Chapter 05
00:10:20.578 : :Chapter 06
00:11:02.370 : :Chapter 07
00:12:46.390 : :Chapter 08
00:15:05.988 : :Chapter 09
00:17:01.186 : :Chapter 10
00:19:26.498 : :Chapter 11
00:22:58.752 : :Chapter 12
00:23:43.338 : :Chapter 13
00:24:41.563 : :Chapter 14
00:27:35.236 : :Chapter 15
00:28:03.515 : :Chapter 16
00:29:06.828 : :Chapter 17
00:31:05.530 : :Chapter 18
00:32:34.661 : :Chapter 19
00:33:14.033 : :Chapter 20
00:34:03.750 : :Chapter 21
00:36:32.607 : :Chapter 22
00:38:38.607 : :Chapter 23
00:39:15.603 : :Chapter 24
00:40:29.343 : :Chapter 25
00:42:46.021 : :Chapter 26
00:45:55.502 : :Chapter 27
00:47:00.317 : :Chapter 28
00:47:56.123 : :Chapter 29
00:49:04.816 : :Chapter 30
00:52:07.290 : :Chapter 31
00:52:51.042 : :Chapter 32
00:53:53.647 : :Chapter 33
00:57:20.019 : :Chapter 34
00:58:23.541 : :Chapter 35
01:00:34.213 : :Chapter 36
01:02:14.021 : :Chapter 37
01:03:58.417 : :Chapter 38
01:08:45.704 : :Chapter 39
01:12:44.735 : :Chapter 40
01:14:31.133 : :Chapter 41
01:16:11.400 : :Chapter 42
01:17:25.349 : :Chapter 43
01:20:39.334 : :Chapter 44
01:23:19.869 : :Chapter 45
01:24:50.877 : :Chapter 46
01:25:55.066 : :Chapter 47
01:26:59.255 : :Chapter 48
01:28:23.506 : :Chapter 49
01:29:23.316 : :Chapter 50
01:33:47.913 : :Chapter 51
01:35:50.578 : :Chapter 52
01:37:33.264 : :Chapter 53
01:38:39.747 : :Chapter 54
01:41:24.286 : :Chapter 55
01:41:45.140 : :Chapter 56
Скріншоти:







Про озвучення:
Українське озвучення створено в рамках проекту "Хочеш кіно українською? Замовляй!"

Дякуємо користувачам, що фінансово допомогли проекту:
_Oliko_, 3ipbudax, 5E_koleco, aka_Sotona, Alien8, andrew4web, andrid, aonyshchenko, audt2009, Aussie, bandera77, bearer, Bob, bogdankozar, brizident, Bulba, bursak, cl124, CNeverDie, consul224, cyberprostir, cyclone2000, davose, deepfree, Deformal, Demetrios, denskipper, dimaty_, Dimka, dj_alek, dmitrykiev, Don Pedro, errno, FukashiMoariTakaru, GodSaveUkraine, gol_fm, graas, Gxost, Hako, Harismann, heihasi, Holy_Kadylo, IceKris, igor911, ihor72, Ilmarren, Ingvar, ischenkodv, jaguar_arx, Jenuk, Jenuk, Kapelynka, keloglan, Kirtoff, knedlyk, kred3, Kremin, ktw14, kucher, KulyaNazar, lerk, levitskas, Light-snake, loiknazar, Lubomyr, ludens, lutsko_k, lychvar, lynxnake, MadAnd, MarianB, Masanchick, Maters (Lutsk), MaugliUA, mihaluch2006, mik_king, MikeSmit, Mitrukhin, mkovalyk, morg, mova.org.ua, Muthafuka, nasnas, nassnass, nemos, nirvanka, noubase, Nydota, ok, okzdp, OLENKA1980, Oleshko, olfed111, olgak58, olgerdss, orest, orkosam, ortt11, OSCAR, ozm, panama58, patlatyj1000, pekodin, PerecKTO, piter7pen, poi, pouter, ppk21, professor, rakab, Rost3, RST, rudchenkos, sanj1957, Sehrg-Gut, semteacher, Sepoolka, SergoMozaic, SergSt, shtein, sicheslav, Sirko, Sirpent, Sirpent, Skochko, skuline, smindmax, Snuryus, somnambula, stalker_cv, StarWatchCat, strategic, Supa, sxander88, Syawa, Tanat13, Taras, TarasD, tarpyt, tartess, testUserAsd, thefir, tokar121, turba, UaMaxKh, uarenik, urshula, V_P_Staryk, vadimox, ValicV, vanami, vdim82, vecchio, Velizariy, Vettabat, vifilo, Vikk, virgilius, vitalijkichak, viter07, VovaVirus, waldi-hurtom, webars, Wivern, xbohdan, xfsthe, Xshot, yarik_ratnik, YaWrangler, yellow_man, yg, Yrshel76, zaika, Анастасійка, Андр1й, Вишняк Артем , Вірний, дяк, Зачіпка, Лексій, М_а_м_а_Й, Новенький, павло, Риф, Рідний простір, РоманМ, Сергій, Толік та Олік, Я
Також дякуємо користувачам, що надали фінансову допомогу, але побажали бути анонімними.
Джерело: &


Авторський реліз (завантажувати можна без реєстрації)
 Трекер:    Зареєстрований   

Завантажити / скачати фільм українською



відео для новачків



 Зареєстрований:   2019-12-13 21:27
 Розмір:   22.48 GB 
 Оцінка фільму:   10/10 (Голосів: 2)
   
kpomed 
Частий відвідувач


З нами з: 12.10.13
Востаннє: 24.09.20
Повідомлень: 33

2019-12-14 23:51  
Як ? Ну, тобто, 39 рік і 4к ?)
ivants 
Новенький


З нами з: 05.11.11
Востаннє: 13.09.20
Повідомлень: 11

2019-12-15 01:34  
kpomed
Пошукай "35mm film resolution"

Ваш часовий пояс: GMT + 2 Години

Нова тема   Відповісти