Містер Маджестік / Містер Маджестик / Mr. Majestyk (1974) Remux 1080p 2xUkr/Eng | Sub Eng

Нові коментарі

Нова тема   Відповісти
Автор Повідомлення
MakRA 
VIP


З нами з: 11.11.18
Востаннє: 01.10.20
Повідомлень: 1120

2019-12-13 01:37  
Містер Маджестік / Містер Маджестик / Mr. Majestyk (1974) Remux 1080p 2xUkr/Eng | Sub Eng

Містер Маджестік / Містер Маджестик / Mr. Majestyk (1974) Remux 1080p 2xUkr/Eng | Sub Eng

Альтернативні постери:



Жанр: екшн, кримінальний, драма
Країна: США



Кінокомпанія: The Mirisch Corporation, United Artists
Режисер: Річад Флайшер [Richard Fleischer]
Актори: Чарльз Бронсон [Charles Bronson], Ал Леттіері [Al Lettieri], Лінда Крістал [Linda Cristal], Лі Пурселл [Lee Purcell], Пол Колсо [Paul Koslo], Тейлор Лочер [Taylor Lacher], Френк Максвелл [Taylor Lacher], Алехандро Рей [Alejandro Rey], Джордан Родс [Jordan Rhodes], Берт Сантос [Bert Santos]

Сюжет:
Містер Маджестик - ветеран в'єтнамської війни і затятий поборник справедливості. Тому у нього складні відносини з місцевою владою та мафією. Коли Маджестик приймає на роботу емігрантів всупереч законам, весь його врожай знищують бандити. Не стерпівши подібного, містер Маджестик бере гвинтівку і відправляється вершити правосуддя на свій лад ...


Тривалість: 01:43:38
Якість: Remux 1080p [GER Transfer]
Відео:
кодек:
розмір кадру: 1920 х 1080
бітрейт: 23 б/с

Аудіо # 1:
мова: українська
переклад: багатоголосий закадровий
кодек: 2.0
бітрейт: 192 кб/с
назву перекладено як: "Містер Маджестік"

Аудіо # 2:
мова: українська
переклад: двоголосий закадровий
кодек: 2.0
бітрейт: 192 кб/с
назву перекладено як: "Містер Маджестик"

Аудіо # 3:
мова: англійська
переклад: оригінал
кодек: -HD MA 2.0
бітрейт: 1652 кб/с

Субтитри: (Full)
мова: англійська
тип: програмні (м'які)
формат: *.srt

Збережено оригінальні розділи, як на Blu-ray.
Info
General
Unique ID : 266233099801670999424268998138341367308 (0xC84AA141BFDD916DEC541DE4B7141E0C)
Complete name : I:\+Фільмографії- Чарльз Бронсон [Charles Bronson]\Mr. Majestyk (1974) Remux 1080p 2xUkrEng Sub Eng [Hurtom].
Format :
Format version : Version 4
File size : 18.1 GiB
Duration : 1 h 43 min
Overall bit rate mode : Variable
Overall bit rate : 25.0 Mb/s
Movie name : Містер Маджестік / Містер Маджестик / Mr. Majestyk (1974) Remux 1080p 2xUkr/Eng | Sub Eng [Hurtom]
Encoded date : UTC 2019-12-12 10:20:18
Writing application : v25.0.0 ('Prog Noir') 64-bit
Writing library : libebml v1.3.6 + v1.4.9
Cover : Yes
Attachments : cover.jpg

Video
ID : 1
Format : AVC
Format/Info : Advanced Video Codec
Format profile : [email protected]
Format settings : CABAC / 4 Ref Frames
Format settings, CABAC : Yes
Format settings, Reference fra : 4 frames
Codec ID : V_MPEG4/ISO/AVC
Duration : 1 h 43 min
Bit rate mode : Variable
Bit rate :23.0 Mb/s
Maximum bit rate : 39.0 Mb/s
Width : 1 920 pixels
Height : 1 080 pixels
Display aspect ratio : 16:9
Frame rate mode : Constant
Frame rate : 23.976 (24000/1001) FPS
Standard : NTSC
Color space : YUV
Chroma subsampling : 4:2:0
Bit depth : 8 bits
Scan type : Progressive
Bits/(Pixel*Frame) : 0.463
Stream size : 16.7 GiB (92%)
Title : Mr. Majestyk (1974) Remux 1080p 2xUkr/Eng | Sub Eng [Hurtom]
Language : Ukrainian
Default : Yes
Forced : Yes
Color range : Limited
Color primaries : BT.709
Transfer characteristics : BT.709
Matrix coefficients : BT.709

Audio #1
ID : 2
Format : AC-3
Format/Info : Audio Coding 3
Commercial name : Dolby Digital
Codec ID : A_AC3
Duration : 1 h 43 min
Bit rate mode : Constant
Bit rate : 192 kb/s
Channel(s) : 2 channels
Channel layout : L R
Sampling rate : 48.0 kHz
Frame rate : 31.250 FPS (1536 SPF)
Bit depth : 16 bits
Compression mode : Lossy
Stream size : 142 MiB (1%)
Title : MVO [AMC] 2.0
Language : Ukrainian
Service kind : Complete Main
Default : Yes
Forced : Yes

Audio #2
ID : 3
Format : AC-3
Format/Info : Audio Coding 3
Commercial name : Dolby Digital
Codec ID : A_AC3
Duration : 1 h 43 min
Bit rate mode : Constant
Bit rate : 192 kb/s
Channel(s) : 2 channels
Channel layout : L R
Sampling rate : 48.0 kHz
Frame rate : 31.250 FPS (1536 SPF)
Bit depth : 16 bits
Compression mode : Lossy
Stream size : 142 MiB (1%)
Title : DVO [2+2] 2.0
Language : Ukrainian
Service kind : Complete Main
Default : No
Forced : No

Audio #3
ID : 4
Format : XLL
Format/Info : Digital Theater Systems
Commercial name : -HD Master Audio
Codec ID : A_DTS
Duration : 1 h 43 min
Bit rate mode : Variable
Bit rate : 1 652 kb/s
Channel(s) : 2 channels
Channel layout : L R
Sampling rate : 48.0 kHz
Frame rate : 93.750 FPS (512 SPF)
Bit depth : 16 bits
Compression mode : Lossless
Stream size : 1.20 GiB (7%)
Title : Original -HD MA 2.0
Language : English
Default : No
Forced : No

Text
ID : 5
Format : UTF-8
Codec ID : S_TEXT/UTF8
Codec ID/Info : UTF-8 Plain Text
Duration : 1 h 40 min
Bit rate : 44 b/s
Count of elements : 959
Stream size : 32.7 KiB (0%)
Title : Eng (Full)
Language : English
Default : No
Forced : No

Menu
00:00:00.000 : en:Chapter 1
00:07:39.333 : en:Chapter 2
00:16:40.374 : en:Chapter 3
00:23:42.087 : en:Chapter 4
00:32:31.991 : en:Chapter 5
00:42:39.682 : en:Chapter 6
00:53:40.926 : en:Chapter 7
01:03:49.617 : en:Chapter 8
01:11:33.330 : en:Chapter 9
01:21:23.753 : en:Chapter 10
01:32:19.200 : en:Chapter 11
01:42:49.079 : en:Chapter 12
Скріншоти
Джерело: &
За запис звуку (Аудіо # 1) з ТБ подяка п. Sando7
За запис звуку (Аудіо # 2) з ТБ подяка п. karvai0, зведення п. robotron005
Особиста оцінка: 9 - давно не бачив настільки якісне кіно
Tongue up (1) Tongue up (1)


Золотий реліз (завантажене не впливає на рейтинг)
 Трекер:    Зареєстрований   

Завантажити / скачати фільм українською



відео для новачків



 Зареєстрований:   2019-12-13 01:37
 Розмір:   18.13 GB 
 Оцінка фільму:   10/10 (Голосів: 6)
   
Ваш часовий пояс: GMT + 2 Години

Нова тема   Відповісти