Механік / The Mechanic (1972) Remux 1080p Ukr/Eng | Sub Eng

Нові коментарі

Нова тема   Відповісти
Автор Повідомлення
MakRA 
VIP


З нами з: 11.11.18
Востаннє: 27.09.20
Повідомлень: 1120

2019-12-12 12:41  
Механік / The Mechanic (1972) Remux 1080p Ukr/Eng | Sub Eng

Механік / The Mechanic (1972) Remux 1080p Ukr/Eng | Sub Eng

Альтернативні постери:




Жанр: екшн, кримінальний, трилер
Країна: США



Кінокомпанія: Chartoff-Winkler Productions, Carlino Productions
Режисер: Майкл Віннер [Michael Winner]
Актори: Чарльз Бронсон [Charles Bronson], Єн-Майкл Вінсент [Jan-Michael Vincent], Кінан Вінн [Keenan Wynn], Джил Ірланд [Jill Ireland]

Сюжет:
Професійний кілер Артур Бішоп отримує великі суми за вбивство людей, смерть яких він маскує під нещасні випадки. Після «усунення» кращого друга Гаррі МакКенна - зрадника могутньої організації, на яку вони працювали, - Бішоп бере до себе в учні його сина Стіві. Артур вчить юнака всьому, що знає і вміє, але одного разу протеже застосовує всі отримані знання проти свого вчителя ...


Тривалість: 01:39:52
Якість: Remux 1080p [US The Limited Edition Series]
Відео:
кодек:
розмір кадру: 1920 х 1080
бітрейт: 34,9 Mб/с

Аудіо # 1:
мова: українська
переклад: двоголосий закадровий
кодек: 2.0
бітрейт: 192 кб/с
Про озвучення:

Переклад виконано і озвучено студією: "СтарМайстер"
Ролі озвучили: Олег Лепенець і Тетяна Антонова.
Аудіо # 2:
мова: англійська
переклад: оригінал
кодек: -HD MA 1.0
бітрейт: 1106 кб/с

Аудіо # 3:
мова: англійська
переклад: коментарі фотографа Річарда Клайна та продюсера Ніка Редмана
кодек: 2.0
бітрейт: 255 кб/с

Субтитри: (SDH)
мова: англійська
тип: пререндерні
формат: *.pgs

Збережено оригінальні розділи, як на Blu-ray.
Info
General
Unique ID : 298135679084868799277484006873852316345 (0xE04AD7DAE7B6A79C290CB38DB1648AB9)
Complete name : I:\+Фільмографії- Чарльз Бронсон [Charles Bronson]\The Mechanic (1972) Remux 1080p UkrEng Sub Eng [Hurtom].
Format :
Format version : Version 4
File size : 25.4 GiB
Duration : 1 h 39 min
Overall bit rate mode : Variable
Overall bit rate : 36.5 Mb/s
Movie name : Механік / The Mechanic (1972) Remux 1080p Ukr/Eng | Sub Eng [Hurtom]
Encoded date : UTC 2019-12-12 05:02:34
Writing application : v25.0.0 ('Prog Noir') 64-bit
Writing library : libebml v1.3.6 + v1.4.9
Cover : Yes
Attachments : cover.jpg

Video
ID : 1
Format : AVC
Format/Info : Advanced Video Codec
Format profile : [email protected]
Format settings : CABAC / 4 Ref Frames
Format settings, CABAC : Yes
Format settings, Reference fra : 4 frames
Codec ID : V_MPEG4/ISO/AVC
Duration : 1 h 39 min
Bit rate mode : Variable
Bit rate : 34.9 Mb/s
Maximum bit rate : 38.0 Mb/s
Width : 1 920 pixels
Height : 1 080 pixels
Display aspect ratio : 16:9
Frame rate mode : Constant
Frame rate : 23.976 (24000/1001) FPS
Color space : YUV
Chroma subsampling : 4:2:0
Bit depth : 8 bits
Scan type : Progressive
Bits/(Pixel*Frame) : 0.702
Stream size : 24.3 GiB (96%)
Title : The Mechanic (1972) Remux 1080p Ukr/Eng | Sub Eng [Hurtom]
Language : Ukrainian
Default : Yes
Forced : Yes

Audio #1
ID : 2
Format : AC-3
Format/Info : Audio Coding 3
Commercial name : Dolby Digital
Codec ID : A_AC3
Duration : 1 h 39 min
Bit rate mode : Constant
Bit rate : 192 kb/s
Channel(s) : 2 channels
Channel layout : L R
Sampling rate : 48.0 kHz
Frame rate : 31.250 FPS (1536 SPF)
Bit depth : 16 bits
Compression mode : Lossy
Stream size : 137 MiB (1%)
Title : DVO [2+2] 2.0
Language : Ukrainian
Service kind : Complete Main
Default : Yes
Forced : Yes

Audio #2
ID : 3
Format : XLL
Format/Info : Digital Theater Systems
Commercial name : -HD Master Audio
Codec ID : A_DTS
Duration : 1 h 39 min
Bit rate mode : Variable
Bit rate : 1 106 kb/s
Channel(s) : 1 channel
Channel layout : C
Sampling rate : 48.0 kHz
Frame rate : 93.750 FPS (512 SPF)
Bit depth : 24 bits
Compression mode : Lossless
Stream size : 790 MiB (3%)
Title : Original -HD MA 1.0
Language : English
Default : No
Forced : No

Audio #3
ID : 4
Format :
Format/Info : Digital Theater Systems
Codec ID : A_DTS
Duration : 1 h 39 min
Bit rate mode : Constant
Bit rate : 255 kb/s
Channel(s) : 2 channels
Channel layout : L R
Sampling rate : 48.0 kHz
Frame rate : 93.750 FPS (512 SPF)
Bit depth : 24 bits
Compression mode : Lossy
Stream size : 182 MiB (1%)
Title : Original 2.0 | Commentary: director of photography Richard Kline and producer Nick Redman
Language : English
Default : No
Forced : No

Text
ID : 5
Format : PGS
Muxing mode : zlib
Codec ID : S_HDMV/PGS
Codec ID/Info : Picture based subtitle format used on BDs/HD-DVDs
Duration : 1 h 37 min
Bit rate : 22.9 kb/s
Count of elements : 1889
Stream size : 16.0 MiB (0%)
Title : Eng (SDH)
Language : English
Default : No
Forced : No

Menu
00:00:00.000 : en:Chapter 1
00:10:08.105 : en:Chapter 2
00:16:04.421 : en:Chapter 3
00:23:06.384 : en:Chapter 4
00:30:26.699 : en:Chapter 5
00:39:46.007 : en:Chapter 6
00:48:07.967 : en:Chapter 7
01:00:15.027 : en:Chapter 8
01:08:05.914 : en:Chapter 9
01:17:54.167 : en:Chapter 10
01:28:54.996 : en:Chapter 11
01:39:36.845 : en:Chapter 12
Скріншоти
Джерело: &
Подяка за запис з ТБ п. Romario_O, зведення звуку п. taraskill1, п. robotron005
Особиста оцінка: 10 - без зайвих вагань рекомендую всім!


Золотий реліз (завантажене не впливає на рейтинг)
 Трекер:    Зареєстрований   

Завантажити / скачати фільм українською



відео для новачків



 Зареєстрований:   2019-12-12 12:41
 Розмір:   25.43 GB 
 Оцінка фільму:   10/10 (Голосів: 4)
   
Інші релізи
   Механік / The Mechanic (1972) taraskill1  3 / 0   1.45 GB   2016-04-07 13:29 
+380954897458 
VIP


З нами з: 02.06.17
Востаннє: 18.09.20
Повідомлень: 942

2019-12-12 19:50  
Колись давно в дитинстві дивився по телевізору. Звісно, нічого майже не пам'ятаю. Дивно що і досі не передивися. Так багато всього! ...
Ваш часовий пояс: GMT + 2 Години

Нова тема   Відповісти