Вкради мою дружину / Life of Crime (2013) 1080p Ukr/Eng

Нові коментарі

Нова тема   Відповісти
Автор Повідомлення
Anonymous 







2019-12-11 03:56  
Вкради мою дружину / Life of Crime (2013) 1080p Ukr/Eng

Вкради мою дружину / Life of Crime (2013) 1080p Ukr/Eng


Жанр: комедія, кримінальний
Країна: США



Кінокомпанія: Abbolita Productions, The Gotham Group, Starstream Entertainment, Venture Forth
Режисер: Деніел Шехтер / Daniel Schechter
Актори: Дженніфер Еністон, Мос Деф, Айла Фішер, Уїлл Форте, Марк Бун Джуніор, Тім Роббінс, Джон Хоукс, Клеа Льюїс, Чарлі Тахен, Кевін Корріген

Сюжет:
Коли двоє недолугих злочинців викрали дружину корумпованого забудовника, вони зовсім не очікували, що чоловік не захоче визволяти благовірну. Замість того щоб заплатити злочинцям викуп, він ховається на Багамах з коханкою. В результаті сюжет приймає несподіваний поворот...


Тривалість: 01:40:48
Якість:
Відео:
кодек:
розмір кадру: 1920 х 808
бітрейт: 9353 кб/с

Аудіо # 1:
мова: українська
переклад: багатоголосий закадровий
кодек: 2.0
бітрейт: 192 кб/с

Аудіо # 2:
мова: англійська
переклад: оригінал
кодек: 5.1
бітрейт: 1509 кб/с

Джерело озвучення:

За запис звуку з ТБ дякуємо пану Pegass
Звук взято з релізу
Info
Код:
General
Unique ID                                : 156051281618482354025735914804223946410 (0x75666234748D42F4D5B143162EBC2EAA)
Complete name                            : Life of Crime (2013) 1080p [Ukr_Eng] [Hurtom].
Format                                   :
Format version                           : Version 4
File size                                : 7.78 GiB
Duration                                 : 1 h 40 min
Overall bit rate                         : 11.1 Mb/s
Movie name                               : Вкради мою дружину (2013)
Encoded date                             : UTC 2019-12-10 23:40:34
Writing application                      : v37.0.0 ('Leave It') 32-bit
Writing library                          : libebml v1.3.9 + v1.5.2
Cover                                    : Yes
Attachments                              : cover.jpg

Video
ID                                       : 1
Format                                   : AVC
Format/Info                              : Advanced Video Codec
Format profile                           : [email protected]
Format settings                          : CABAC / 5 Ref Frames
Format settings, CABAC                   : Yes
Format settings, ReFrames                : 5 frames
Codec ID                                 : V_MPEG4/ISO/AVC
Duration                                 : 1 h 40 min
Bit rate                                 : 9 353 kb/s
Width                                    : 1 920 pixels
Height                                   : 808 pixels
Display aspect ratio                     : 2.40:1
Frame rate mode                          : Constant
Frame rate                               : 23.976 FPS
Color space                              : YUV
Chroma subsampling                       : 4:2:0
Bit depth                                : 8 bits
Scan type                                : Progressive
Bits/(Pixel*Frame)                       : 0.251
Stream size                              : 6.58 GiB (85%)
Writing library                          : core 142 r2479 dd79a61
Encoding settings                        : cabac=1 / ref=5 / deblock=1:0:0 / analyse=0x3:0x133 / me=umh / subme=7 / psy=1 / psy_rd=1.00:0.00 / mixed_ref=1 / me_range=16 / chroma_me=1 / trellis=1 / 8x8dct=1 / cqm=0 / deadzone=21,11 / fast_pskip=0 / chroma_qp_offset=-2 / threads=18 / lookahead_threads=3 / sliced_threads=0 / nr=0 / decimate=1 / interlaced=0 / bluray_compat=0 / constrained_intra=0 / bframes=3 / b_pyramid=2 / b_adapt=1 / b_bias=0 / direct=1 / weightb=1 / open_gop=0 / weightp=2 / keyint=250 / keyint_min=23 / scenecut=40 / intra_refresh=0 / rc_lookahead=40 / rc=2pass / mbtree=1 / bitrate=9353 / ratetol=1.0 / qcomp=0.60 / qpmin=0 / qpmax=69 / qpstep=4 / cplxblur=20.0 / qblur=0.5 / ip_ratio=1.40 / aq=1:1.00
Language                                 : English
Default                                  : Yes
Forced                                   : No

Audio #1
ID                                       : 2
Format                                   : AC-3
Format/Info                              : Audio Coding 3
Commercial name                          : Dolby Digital
Codec ID                                 : A_AC3
Duration                                 : 1 h 40 min
Bit rate mode                            : Constant
Bit rate                                 : 192 kb/s
Channel(s)                               : 2 channels
Channel layout                           : L R
Sampling rate                            : 48.0 kHz
Frame rate                               : 31.250 FPS (1536 SPF)
Bit depth                                : 16 bits
Compression mode                         : Lossy
Stream size                              : 138 MiB (2%)
Language                                 : Ukrainian
Service kind                             : Complete Main
Default                                  : Yes
Forced                                   : Yes

Audio #2
ID                                       : 3
Format                                   :
Format/Info                              : Digital Theater Systems
Codec ID                                 : A_DTS
Duration                                 : 1 h 40 min
Bit rate mode                            : Constant
Bit rate                                 : 1 509 kb/s
Channel(s)                               : 6 channels
Channel layout                           : C L R Ls Rs LFE
Sampling rate                            : 48.0 kHz
Frame rate                               : 93.750 FPS (512 SPF)
Bit depth                                : 24 bits
Compression mode                         : Lossy
Stream size                              : 1.06 GiB (14%)
Language                                 : English
Default                                  : No
Forced                                   : No

Menu
00:00:00.000                             : en:00:00:00.000
00:06:22.465                             : en:00:06:22.465
00:12:52.438                             : en:00:12:52.438
00:19:13.110                             : en:00:19:13.110
00:26:24.750                             : en:00:26:24.750
00:32:54.347                             : en:00:32:54.347
00:38:40.818                             : en:00:38:40.818
00:44:30.418                             : en:00:44:30.418
00:52:46.455                             : en:00:52:46.455
00:59:22.476                             : en:00:59:22.476
01:03:57.500                             : en:01:03:57.500
01:12:24.674                             : en:01:12:24.674
01:17:48.122                             : en:01:17:48.122
01:25:22.659                             : en:01:25:22.659
01:30:31.009                             : en:01:30:31.009
01:34:57.567                             : en:01:34:57.567

Скріншоти





Джерело:


 Трекер:    Зареєстрований   

Завантажити / скачати фільм українською



відео для новачків



 Зареєстрований:   2019-12-11 03:56
 Розмір:   7.78 GB 
 Оцінка фільму:   9.6/10 (Голосів: 5)
   
Інші релізи
Ваш часовий пояс: GMT + 2 Години

Нова тема   Відповісти