Баррі (Сезон 2) / Barry (Season 2) (2019) 720p Ukr/Eng | sub Eng

Нові коментарі

Нова тема   Відповісти
Останній раз роздавалося ssTAss (2020-11-27)
Автор Повідомлення
Anonymous 







2019-12-11 02:48  
Баррі (Сезон 2) / Barry (Season 2) (2019) 720p Ukr/Eng | sub Eng

Баррі (Сезон 2) / Barry (Season 2) (2019) 720p Ukr/Eng | sub Eng


Жанр: екшн, комедія, кримінальний
Країна: США



Кінокомпанія: HBO
Режисер: Білл Гейдер, Мінкі Спіро
Актори: Білл Гейдер, Стівен Рут, Сара Голдберг, Ентоні Керріган, Генрі Вінклер, Даррелл Брітт-Гібсон, Енді Кері, Райтор Дойл, Джон Піруччелло, Д'Арсі Карден, Нік Грейсер, Трой Кайлак, Зак Лі, Джессі Ходжес, Майкл Ірбі, Кріс МакГаррі, Томас МакКарді

Сюжет:
Головний герой американського комедійного серіалу «Баррі» – колишній морський піхотинець, а в даний час – найманий вбивця. Одного разу він отримує замовлення, в результаті чого опиняється в Лос-Анджелесі. Прибувши на місце, абсолютно випадково герой опиняється на курсах акторської майстерності. Ця подія перевернула його уявлення про життя. І тепер чоловік не на жарт загорівся бажанням стати справжнім професійним актором. Баррі сподівається, що це буде стартом до нового життя.


Тривалість: 1 серія: ~ 30 хв. (цілком серій: 8)
Перелік серій
01. The Show Must Go On, Probably?
02. The Power of No
03. Past = Present x Future Over Yesterday
04. What?!
05. ronny/lily
06. The Truth Has a Ring to It
07. The Audition
08. berkman > block
Якість:
Відео:
кодек:
розмір кадру: 1280 х 720
бітрейт: 3 082 кб/с

Аудіо # 1:
мова: українська
переклад: багатоголосий закадровий
кодек: 2.0
бітрейт: 192 кб/с

Аудіо # 2:
мова: англійська
переклад: оригінал
кодек: E- 5.1
бітрейт: 640 кб/с

Джерело озвучення:
DniproFilm

Субтитри:
мова: англійська, SDH
тип: програмні (м'які)
формат: *.srt
Info
Код:
General
Unique ID                                : 244899855869814437427100151353836248428 (0xB83DFF1FD6DD4BEA666A029C9E1B1D6C)
Complete name                            : Barry S02E01 (2019) 720p [Ukr_Eng] [Hurtom].
Format                                   :
Format version                           : Version 4
File size                                : 955 MiB
Duration                                 : 34 min 8 s
Overall bit rate                         : 3 913 kb/s
Movie name                               : Баррі (Сезон 2, серія 1) (2019)
Encoded date                             : UTC 2019-11-24 14:14:48
Writing application                      : v30.1.0 ('Forever And More') 64-bit
Writing library                          : libebml v1.3.6 + v1.4.9
Cover                                    : Yes
Attachments                              : cover.jpg

Video
ID                                       : 1
Format                                   : AVC
Format/Info                              : Advanced Video Codec
Format profile                           : [email protected]
Format settings                          : CABAC / 4 Ref Frames
Format settings, CABAC                   : Yes
Format settings, ReFrames                : 4 frames
Codec ID                                 : V_MPEG4/ISO/AVC
Duration                                 : 34 min 6 s
Bit rate mode                            : Constant
Bit rate                                 : 3 082 kb/s
Nominal bit rate                         : 6 000 kb/s
Width                                    : 1 280 pixels
Height                                   : 720 pixels
Display aspect ratio                     : 16:9
Frame rate mode                          : Constant
Frame rate                               : 23.976 (24000/1001) FPS
Color space                              : YUV
Chroma subsampling                       : 4:2:0
Bit depth                                : 8 bits
Scan type                                : Progressive
Bits/(Pixel*Frame)                       : 0.139
Stream size                              : 752 MiB (79%)
Language                                 : English
Default                                  : Yes
Forced                                   : No
Color range                              : Limited
Color primaries                          : BT.709
Transfer characteristics                 : BT.709
Matrix coefficients                      : BT.709

Audio #1
ID                                       : 2
Format                                   : AC-3
Format/Info                              : Audio Coding 3
Commercial name                          : Dolby Digital
Codec ID                                 : A_AC3
Duration                                 : 34 min 6 s
Bit rate mode                            : Constant
Bit rate                                 : 192 kb/s
Channel(s)                               : 2 channels
Channel layout                           : L R
Sampling rate                            : 48.0 kHz
Frame rate                               : 31.250 FPS (1536 SPF)
Bit depth                                : 16 bits
Compression mode                         : Lossy
Stream size                              : 46.8 MiB (5%)
Language                                 : Ukrainian
Service kind                             : Complete Main
Default                                  : Yes
Forced                                   : Yes

Audio #2
ID                                       : 3
Format                                   : E-AC-3
Format/Info                              : Enhanced AC-3
Commercial name                          : Dolby Digital Plus
Codec ID                                 : A_EAC3
Duration                                 : 34 min 6 s
Bit rate mode                            : Constant
Bit rate                                 : 640 kb/s
Channel(s)                               : 6 channels
Channel layout                           : L R C LFE Ls Rs
Sampling rate                            : 48.0 kHz
Frame rate                               : 31.250 FPS (1536 SPF)
Compression mode                         : Lossy
Delay relative to video                  : 2 ms
Stream size                              : 156 MiB (16%)
Language                                 : English
Service kind                             : Complete Main
Default                                  : No
Forced                                   : No

Text #1
ID                                       : 4
Format                                   : UTF-8
Codec ID                                 : S_TEXT/UTF8
Codec ID/Info                            : UTF-8 Plain Text
Duration                                 : 34 min 5 s
Bit rate                                 : 95 b/s
Count of elements                        : 663
Stream size                              : 23.9 KiB (0%)
Title                                    : English
Language                                 : English
Default                                  : No
Forced                                   : No

Text #2
ID                                       : 5
Format                                   : UTF-8
Codec ID                                 : S_TEXT/UTF8
Codec ID/Info                            : UTF-8 Plain Text
Duration                                 : 34 min 5 s
Bit rate                                 : 96 b/s
Count of elements                        : 674
Stream size                              : 24.0 KiB (0%)
Title                                    : English SDH
Language                                 : English
Default                                  : No
Forced                                   : No

Скріншоти







Джерело:


Авторський реліз (завантажувати можна без реєстрації)
 Трекер:    Зареєстрований   

Завантажити / скачати серіал українською



відео для новачків



 Зареєстрований:   2019-12-11 02:48
 Розмір:   6.91 GB 
 Оцінка серіалу:   9.2/10 (Голосів: 10)
   
d1monster 
Свій


З нами з: 05.12.09
Востаннє: 27.11.20
Повідомлень: 98

2019-12-11 11:23  
Переклад від DniproFilm ?
Dark Invader 
Модератор відео


З нами з: 06.01.11
Востаннє: 26.11.20
Повідомлень: 3007

2019-12-11 20:23  
d1monster
Так.
Anonymous написано:

Джерело озвучення:
DniproFilm

Vitt 
Поважний учасник


З нами з: 17.01.11
Востаннє: 27.11.20
Повідомлень: 168

2019-12-13 12:56  
А перший сезон українською десь є?
creatogen 
Новенький


З нами з: 24.09.18
Востаннє: 14.11.20
Повідомлень: 3

2020-01-08 19:25  
Щось не можу знайти 1й сезон на толоці
Black Demon 
Свій


З нами з: 28.11.19
Востаннє: 08.08.20
Повідомлень: 60

2020-01-08 20:29  
creatogen написано:
Щось не можу знайти 1й сезон на толоці

Бо 1-ий сезон українською не був озвучений.

papir25 
Частий відвідувач


З нами з: 25.02.15
Востаннє: 26.11.20
Повідомлень: 25

2020-03-25 14:10  
Крутячок))
elephant1k 
Свій


З нами з: 04.05.16
Востаннє: 27.11.20
Повідомлень: 74

2020-10-24 03:44  
Білл Хейдер вмiє в драму. Це було для мене вiдкриття. Чекаю на 3 сезон.
+380954897458 
VIP


З нами з: 02.06.17
Востаннє: 29.10.20
Повідомлень: 971

2020-10-24 10:45  
elephant1k
Білл Хейдер все може. Різнобічно обдарований чувак. Happy

Ваш часовий пояс: GMT + 2 Години

Нова тема   Відповісти