Пила. Колекція [Режисерські версії] / Saw. Collection [Unrated] (2004-2017) 1080p H.265 Ukr/Eng | Sub Eng

Нові коментарі

Нова тема   Відповісти
Автор Повідомлення
Anonymous 







2019-12-11 01:19  
Пила. Колекція [Режисерські версії] / Saw. Collection [Unrated] (2004-2017) 1080p H.265 Ukr/Eng | Sub Eng

Пила. Колекція [Режисерські версії] / Saw. Collection [Unrated] (2004-2017) 1080p H.265 Ukr/Eng | Sub Eng

1. 2. 3. 4. 5. 6. 7. 8.

1. Пила: Ігри на виживання (Режисерська версія) / Saw (Director's Cut) (2004) 1080p H.265 Ukr/Eng | Sub Eng
Пила: Ігри на виживання (Режисерська версія) / Saw (Director's Cut) (2004) 1080p H.265 Ukr/Eng | Sub Eng

Пила. Колекція [Режисерські версії] / Saw. Collection [Unrated] (2004-2017) 1080p H.265 Ukr/Eng | Sub Eng


Жанр: жахи, трилер, детектив
Країна: США
Режисер: Джеймс Ван
Актори: Лі Уоннелл, Кері Елвіс, Денні Гловер, Кен Люн, Діна Мейер, Майк Баттерс, Пол Гутрехт, Майкл Емерсон, Беніто Мартінес, Шоуні Сміт

Сюжет:
Двоє незнайомців прокидаються в дивному підвальному приміщенні. У центрі приміщення - труп чоловіка з простреленою головою і зброєю в слабнуючий руці. Вони ж прикуті до стін ланцюгами за щиколотки. Обидва не знають, як там опинилися.

Дотягнутися до зброї не можна інакше, як позбувшись від ланцюга. Позбутися від ланцюга не можна інакше, окрім як відпилявши ногу. Часу - обмаль. Але досить, щоб реконструювати ланцюжок дивних подій, які призвели кожного з них туди, де вони зараз опинилися ...

Тривалість: 01:42:46
Якість:

Відео:
кодек: H.265 (HEVC)
розмір кадру: 1920 x 1080
бітрейт: 13 966 кб/с
бітова глибина: 10 біт

Увага! Перед завантаженням переконайтесь, що ваш пристрій відтворення (та/або ПЗ) підтримує H.265 (HEVC)

Аудіо # 1:
мова: українська
переклад: багатоголосий закадровий
кодек: AC-3 5.1
бітрейт: 384 кб/с

Аудіо # 2:
мова: англійська
переклад: оригінал
кодек: AC-3 5.1
бітрейт: 640 кб/с

Субтитри # 1: (Forced)
мова: українська
тип: програмні (м'які)
формат: *.srt

Субтитри # 2: (Full)
мова: англійська
тип: програмні (м'які)
формат: *.srt


Info
Код:
General
Unique ID                                : 195512780281035846792440394114750167929 (0x9316644D5B3CBDF5B08602136FFB3B79)
Complete name                            : 01. Saw (2004) [Director's Cut] 1080p H.265 [UKR_ENG] [Hurtom].
Format                                   :
Format version                           : Version 4
File size                                : 10.8 GiB
Duration                                 : 1 h 42 min
Overall bit rate                         : 15.0 Mb/s
Movie name                               : Пила: Гра на виживання [Режисерська версія] / Saw [Director's Cut] (2004)
Encoded date                             : UTC 2019-06-10 20:45:06
Writing application                      : v20.0.0 ('I Am The Sun') 64-bit
Writing library                          : libebml v1.3.5 + v1.4.8
Cover                                    : Yes
Attachments                              : Cover.png

Video
ID                                       : 1
Format                                   : HEVC
Format/Info                              : High Efficiency Video Coding
Format profile                           : Main [email protected]@High
Codec ID                                 : V_MPEGH/ISO/HEVC
Duration                                 : 1 h 42 min
Bit rate                                 : 14.0 Mb/s
Width                                    : 1 920 pixels
Height                                   : 1 080 pixels
Display aspect ratio                     : 16:9
Frame rate mode                          : Constant
Frame rate                               : 23.976 (24000/1001) FPS
Color space                              : YUV
Chroma subsampling                       : 4:2:0
Bit depth                                : 10 bits
Bits/(Pixel*Frame)                       : 0.281
Stream size                              : 10.0 GiB (93%)
Title                                    : Пила: Гра на виживання [Режисерська версія] / Saw [Director's Cut] (2004)
Writing library                          : x265 2.9+9-f74003e88622:[Windows][GCC 8.2.0][64 bit] 10bit
Encoding settings                        : cpuid=1049583 / frame-threads=5 / numa-pools=4 / wpp / no-pmode / no-pme / no-psnr / no-ssim / log-level=3 / input-csp=1 / input-res=1920x1080 / interlace=0 / total-frames=0 / level-idc=41 / high-tier=1 / uhd-bd=0 / ref=4 / allow-non-conformance / no-repeat-headers / annexb / no-aud / no-hrd / info / hash=0 / no-temporal-layers / open-gop / min-keyint=24 / keyint=240 / gop-lookahead=0 / bframes=12 / b-adapt=2 / b-pyramid / bframe-bias=0 / rc-lookahead=40 / lookahead-slices=6 / scenecut=40 / radl=0 / no-intra-refresh / ctu=32 / min-cu-size=8 / rect / no-amp / max-tu-size=32 / tu-inter-depth=4 / tu-intra-depth=4 / limit-tu=1 / rdoq-level=1 / dynamic-rd=0.00 / no-ssim-rd / signhide / no-tskip / nr-intra=0 / nr-inter=0 / no-constrained-intra / no-strong-intra-smoothing / max-merge=5 / limit-refs=3 / no-limit-modes / me=3 / subme=7 / merange=57 / temporal-mvp / weightp / weightb / no-analyze-src-pics / deblock=-3:-3 / no-sao / no-sao-non-deblock / rd=4 / no-early-skip / no-rskip / no-fast-intra / no-tskip-fast / no-cu-lossless / no-b-intra / no-splitrd-skip / rdpenalty=0 / psy-rd=2.00 / psy-rdoq=1.00 / no-rd-refine / no-lossless / cbqpoffs=0 / crqpoffs=0 / rc=crf / crf=21.0 / qcomp=0.60 / qpstep=4 / stats-write=0 / stats-read=0 / vbv-maxrate=50000 / vbv-bufsize=50000 / vbv-init=0.9 / crf-max=0.0 / crf-min=0.0 / ipratio=1.40 / pbratio=1.30 / aq-mode=3 / aq-strength=1.00 / no-cutree / zone-count=0 / no-strict-cbr / qg-size=32 / no-rc-grain / qpmax=69 / qpmin=0 / no-const-vbv / sar=1 / overscan=0 / videoformat=5 / range=0 / colorprim=1 / transfer=1 / colormatrix=1 / chromaloc=0 / display-window=0 / max-cll=0,0 / min-luma=0 / max-luma=1023 / log2-max-poc-lsb=8 / vui-timing-info / vui-hrd-info / slices=1 / no-opt-qp-pps / no-opt-ref-list-length-pps / no-multi-pass-opt-rps / scenecut-bias=0.05 / no-opt-cu-delta-qp / no-aq-motion / no-hdr / no-hdr-opt / no-dhdr10-opt / no-idr-recovery-sei / analysis-reuse-level=5 / scale-factor=0 / refine-intra=0 / refine-inter=0 / refine-mv=0 / no-limit-sao / ctu-info=0 / no-lowpass-dct / refine-mv-type=0 / copy-pic=1 / max-ausize-factor=1.0 / no-dynamic-refine / no-single-sei
Language                                 : English
Default                                  : Yes
Forced                                   : No
Color range                              : Limited
Color primaries                          : BT.709
Transfer characteristics                 : BT.709
Matrix coefficients                      : BT.709

Audio #1
ID                                       : 2
Format                                   : AC-3
Format/Info                              : Audio Coding 3
Commercial name                          : Dolby Digital
Codec ID                                 : A_AC3
Duration                                 : 1 h 42 min
Bit rate mode                            : Constant
Bit rate                                 : 384 kb/s
Channel(s)                               : 6 channels
Channel layout                           : L R C LFE Ls Rs
Sampling rate                            : 48.0 kHz
Frame rate                               : 31.250 FPS (1536 SPF)
Bit depth                                : 16 bits
Compression mode                         : Lossy
Stream size                              : 282 MiB (3%)
Title                                    : БЗ - Kanal Ukraina
Language                                 : Ukrainian
Service kind                             : Complete Main
Default                                  : Yes
Forced                                   : Yes

Audio #2
ID                                       : 3
Format                                   : AC-3
Format/Info                              : Audio Coding 3
Commercial name                          : Dolby Digital
Codec ID                                 : A_AC3
Duration                                 : 1 h 42 min
Bit rate mode                            : Constant
Bit rate                                 : 640 kb/s
Channel(s)                               : 6 channels
Channel layout                           : L R C LFE Ls Rs
Sampling rate                            : 48.0 kHz
Frame rate                               : 31.250 FPS (1536 SPF)
Bit depth                                : 16 bits
Compression mode                         : Lossy
Stream size                              : 470 MiB (4%)
Title                                    : Original
Language                                 : English
Service kind                             : Complete Main
Default                                  : No
Forced                                   : No

Text #1
ID                                       : 4
Format                                   : UTF-8
Codec ID                                 : S_TEXT/UTF8
Codec ID/Info                            : UTF-8 Plain Text
Duration                                 : 1 min 54 s
Bit rate                                 : 82 b/s
Count of elements                        : 18
Stream size                              : 1.16 KiB (0%)
Title                                    : Forced
Language                                 : Ukrainian
Default                                  : Yes
Forced                                   : Yes

Text #2
ID                                       : 5
Format                                   : UTF-8
Codec ID                                 : S_TEXT/UTF8
Codec ID/Info                            : UTF-8 Plain Text
Duration                                 : 1 h 37 min
Bit rate                                 : 41 b/s
Count of elements                        : 907
Stream size                              : 29.9 KiB (0%)
Title                                    : Full
Language                                 : English
Default                                  : No
Forced                                   : No

Menu
00:00:00.000                             : :(01)00:00:00:000
00:06:30.390                             : :(02)00:06:30:390
00:16:35.244                             : :(03)00:16:35:244
00:24:12.659                             : :(04)00:24:12:659
00:32:29.530                             : :(05)00:32:29:530
00:41:44.043                             : :(06)00:41:44:043
00:46:56.647                             : :(07)00:46:56:647
00:54:56.209                             : :(08)00:54:56:209
00:58:47.607                             : :(09)00:58:47:607
01:02:49.056                             : :(10)01:02:49:056
01:06:43.666                             : :(11)01:06:43:666
01:10:49.578                             : :(12)01:10:49:578
01:13:27.694                             : :(13)01:13:27:694
01:17:53.960                             : :(14)01:17:53:960
01:22:24.064                             : :(15)01:22:24:064
01:29:38.998                             : :(16)01:29:38:998
01:33:04.537                             : :(17)01:33:04:537
01:38:48.505                             : :(18)01:38:48:505
Світлини



2. Пила 2 (Режисерська версія) / Saw 2 (Director's Cut) (2005) 1080p H.265 Ukr/Eng | Sub Eng
Пила 2 (Режисерська версія) / Saw 2 (Director's Cut) (2005) 1080p H.265 Ukr/Eng | Sub Eng

Пила. Колекція [Режисерські версії] / Saw. Collection [Unrated] (2004-2017) 1080p H.265 Ukr/Eng | Sub Eng


Жанр: жахи, трилер, детектив
Країна: США
Кінокомпанія: Twisted Pictures
Режисер: Даррен Лінн Боусман
Актори: Донні Валберг, Шоуні Сміт, Френкі Джі, Діна Меєр, Беверлі Мітчел, Глен Пламме.

Сюжет:
Під час розслідування подробиць кривавих діянь невідомого вбивці детектив Ерік Метьюс ловить себе на думці, що вони дуже схожі на роботу Пили - відомого маніяка, який зміг зникнути, залишивши за собою безліч жертв. Метьюс виявляється правий. Пила знову взявся за своє жахливе ремесло. Лише цього разу замість двох людей, він замикає в кімнаті смерті з єдиним способом вибратися живим, відразу вісім чоловік. Вісім ніяк не зв'язаних один з одним незнайомців виявляються вимушені вступити в гру божевільного вбивці, ставками в якій будуть їх життя..

Тривалість: 01:34:32
Якість:

Відео:
кодек: H.265 (HEVC)
розмір кадру: 1920 x 1080
бітрейт: 15 902 кб/с
бітова глибина: 10 біт

Увага! Перед завантаженням переконайтесь, що ваш пристрій відтворення (та/або ПЗ) підтримує H.265 (HEVC)

Аудіо # 1:
мова: українська
переклад: багатоголосий закадровий
кодек: AC-3 5.1
бітрейт: 384 кб/с

Аудіо # 2:
мова: англійська
переклад: оригінал
кодек: AC-3 5.1
бітрейт: 640 кб/с

Субтитри # 1: (Full)
мова: англійська
тип: програмні (м'які)
формат: *.srt


Info
Код:
General
Unique ID                                : 180931239128103895220664701469098358263 (0x881E16D14D3B4F165A65A3FF9599B5F7)
Complete name                            : 02. Saw 2 (2005) [Director's Cut] 1080p H.265 [UKR_ENG] [Hurtom].
Format                                   :
Format version                           : Version 4
File size                                : 11.2 GiB
Duration                                 : 1 h 34 min
Overall bit rate                         : 16.9 Mb/s
Movie name                               : Пила 2 [Режисерська версія] / Saw 2 [Director's Cut] (2005)
Encoded date                             : UTC 2019-07-02 22:44:08
Writing application                      : v20.0.0 ('I Am The Sun') 64-bit
Writing library                          : libebml v1.3.5 + v1.4.8
Cover                                    : Yes
Attachments                              : Cover.jpg

Video
ID                                       : 1
Format                                   : HEVC
Format/Info                              : High Efficiency Video Coding
Format profile                           : Main [email protected]@High
Codec ID                                 : V_MPEGH/ISO/HEVC
Duration                                 : 1 h 34 min
Bit rate                                 : 15.9 Mb/s
Width                                    : 1 920 pixels
Height                                   : 1 080 pixels
Display aspect ratio                     : 16:9
Frame rate mode                          : Constant
Frame rate                               : 23.976 (24000/1001) FPS
Color space                              : YUV
Chroma subsampling                       : 4:2:0
Bit depth                                : 10 bits
Bits/(Pixel*Frame)                       : 0.320
Stream size                              : 10.5 GiB (94%)
Title                                    : Пила 2 [Режисерська версія] / Saw 2 [Director's Cut] (2005)
Writing library                          : x265 2.9+9-f74003e88622:[Windows][GCC 8.2.0][64 bit] 10bit
Encoding settings                        : cpuid=1049583 / frame-threads=5 / numa-pools=4 / wpp / no-pmode / no-pme / no-psnr / no-ssim / log-level=3 / input-csp=1 / input-res=1920x1080 / interlace=0 / total-frames=0 / level-idc=41 / high-tier=1 / uhd-bd=0 / ref=5 / allow-non-conformance / no-repeat-headers / annexb / no-aud / no-hrd / info / hash=0 / no-temporal-layers / open-gop / min-keyint=24 / keyint=240 / gop-lookahead=0 / bframes=16 / b-adapt=2 / b-pyramid / bframe-bias=0 / rc-lookahead=40 / lookahead-slices=6 / scenecut=40 / radl=0 / no-intra-refresh / ctu=32 / min-cu-size=8 / no-rect / no-amp / max-tu-size=32 / tu-inter-depth=4 / tu-intra-depth=4 / limit-tu=1 / rdoq-level=0 / dynamic-rd=0.00 / no-ssim-rd / signhide / no-tskip / nr-intra=0 / nr-inter=0 / no-constrained-intra / no-strong-intra-smoothing / max-merge=3 / limit-refs=3 / no-limit-modes / me=3 / subme=7 / merange=57 / temporal-mvp / weightp / no-weightb / no-analyze-src-pics / deblock=-3:-3 / no-sao / no-sao-non-deblock / rd=6 / no-early-skip / no-rskip / no-fast-intra / no-tskip-fast / no-cu-lossless / no-b-intra / no-splitrd-skip / rdpenalty=0 / psy-rd=2.00 / psy-rdoq=0.00 / no-rd-refine / no-lossless / cbqpoffs=0 / crqpoffs=0 / rc=crf / crf=20.0 / qcomp=0.60 / qpstep=4 / stats-write=0 / stats-read=0 / vbv-maxrate=50000 / vbv-bufsize=50000 / vbv-init=0.9 / crf-max=0.0 / crf-min=0.0 / ipratio=1.40 / pbratio=1.30 / aq-mode=3 / aq-strength=1.00 / no-cutree / zone-count=0 / no-strict-cbr / qg-size=32 / no-rc-grain / qpmax=69 / qpmin=0 / no-const-vbv / sar=1 / overscan=0 / videoformat=5 / range=0 / colorprim=1 / transfer=1 / colormatrix=1 / chromaloc=0 / display-window=0 / max-cll=0,0 / min-luma=0 / max-luma=1023 / log2-max-poc-lsb=8 / vui-timing-info / vui-hrd-info / slices=1 / no-opt-qp-pps / no-opt-ref-list-length-pps / no-multi-pass-opt-rps / scenecut-bias=0.05 / no-opt-cu-delta-qp / no-aq-motion / no-hdr / no-hdr-opt / no-dhdr10-opt / no-idr-recovery-sei / analysis-reuse-level=5 / scale-factor=0 / refine-intra=0 / refine-inter=0 / refine-mv=0 / no-limit-sao / ctu-info=0 / no-lowpass-dct / refine-mv-type=0 / copy-pic=1 / max-ausize-factor=1.0 / no-dynamic-refine / no-single-sei
Language                                 : English
Default                                  : Yes
Forced                                   : No
Color range                              : Limited
Color primaries                          : BT.709
Transfer characteristics                 : BT.709
Matrix coefficients                      : BT.709

Audio #1
ID                                       : 2
Format                                   : AC-3
Format/Info                              : Audio Coding 3
Commercial name                          : Dolby Digital
Codec ID                                 : A_AC3
Duration                                 : 1 h 34 min
Bit rate mode                            : Constant
Bit rate                                 : 384 kb/s
Channel(s)                               : 6 channels
Channel layout                           : L R C LFE Ls Rs
Sampling rate                            : 48.0 kHz
Frame rate                               : 31.250 FPS (1536 SPF)
Bit depth                                : 16 bits
Compression mode                         : Lossy
Stream size                              : 260 MiB (2%)
Title                                    : БЗ - ICTV
Language                                 : Ukrainian
Service kind                             : Complete Main
Default                                  : Yes
Forced                                   : Yes

Audio #2
ID                                       : 3
Format                                   : AC-3
Format/Info                              : Audio Coding 3
Commercial name                          : Dolby Digital
Codec ID                                 : A_AC3
Duration                                 : 1 h 34 min
Bit rate mode                            : Constant
Bit rate                                 : 640 kb/s
Channel(s)                               : 6 channels
Channel layout                           : L R C LFE Ls Rs
Sampling rate                            : 48.0 kHz
Frame rate                               : 31.250 FPS (1536 SPF)
Bit depth                                : 16 bits
Compression mode                         : Lossy
Stream size                              : 433 MiB (4%)
Title                                    : Original
Language                                 : English
Service kind                             : Complete Main
Default                                  : No
Forced                                   : No

Text
ID                                       : 4
Format                                   : UTF-8
Codec ID                                 : S_TEXT/UTF8
Codec ID/Info                            : UTF-8 Plain Text
Duration                                 : 1 h 27 min
Bit rate                                 : 53 b/s
Count of elements                        : 1038
Stream size                              : 34.0 KiB (0%)
Title                                    : Full
Language                                 : English
Default                                  : No
Forced                                   : No

Menu
00:00:00.000                             : en:Main Titles/Death Mask
00:04:50.123                             : en:Jigsaw's Pattern
00:09:12.760                             : en:He Asked For You
00:11:28.354                             : en:Is This Close Enough?
00:15:45.945                             : en:Oh Yes, There Will Be Blood
00:18:36.490                             : en:Let The Game Begin
00:25:00.540                             : en:It's Not A Fortress
00:29:59.714                             : en:The Survival Instinct
00:35:25.248                             : en:You Did This!
00:43:00.494                             : en:The Knowledge Of Death
00:47:34.560                             : en:Why Did He Pick You?
00:50:43.081                             : en:Needle In A Haystack
00:57:24.441                             : en:They Remember You
01:00:37.133                             : en:Head Trauma
01:04:26.529                             : en:X Marks The Spot
01:08:35.903                             : en:Help Me!
01:12:09.658                             : en:Location Lock
01:16:47.477                             : en:I Cannot See You
01:19:51.036                             : en:Self Mutilation
01:23:00.850                             : en:The Cure For Death
01:28:48.197                             : en:End Titles
Світлини



3. Пила 3 (Режисерська версія) / Saw 3 (Director's Cut) (2006) 1080p H.265 Ukr/Eng | Sub Eng
Пила 3 (Режисерська версія) / Saw 3 (Director's Cut) (2006) 1080p H.265 Ukr/Eng | Sub Eng

Пила. Колекція [Режисерські версії] / Saw. Collection [Unrated] (2004-2017) 1080p H.265 Ukr/Eng | Sub Eng


Жанр: жахи, трилер, детектив
Країна: США, Канада
Кінокомпанія: Twisted Pictures,Evolution Entertainment,Lions Gate Films Inc.,Lionsgate,A Bigger Boat,Serendipity Productions
Режисер: Даррен Лінн Боусман
Актори: Тобін Белл, Шоуні Сміт, Бахар Сумех, Енгус МакФадь'єн, Діна Мейєр, та інші.

Сюжет:
Великий і жахливий Конструктор зник з поля зору. Проте криваві і нелюдські ігри на виживання продовжуються під чуйним керівництвом соратника Конструктора — Аманди. Поки охоронці порядку безуспішно намагаються вийти на слід пари маніяків, лікар Лінн Денлон, сама того не відаючи, вплутується в нову смертельно-небезпечну гру …

Тривалість: 01:53:44
Якість:

Відео:
кодек: H.265 (HEVC)
розмір кадру: 1920 x 1080
бітрейт: 14 628 кб/с
бітова глибина: 10 біт

Увага! Перед завантаженням переконайтесь, що ваш пристрій відтворення (та/або ПЗ) підтримує H.265 (HEVC)

Аудіо # 1:
мова: українська
переклад: багатоголосий закадровий
кодек: AC-3 2.0
бітрейт: 384 кб/с

Аудіо # 2:
мова: англійська
переклад: оригінал
кодек: AC-3 5.1
бітрейт: 640 кб/с

Субтитри # 1: (Full)
мова: англійська
тип: програмні (м'які)
формат: *.srt


Info
Код:
General
Unique ID                                : 299200305381535836366510734173446540300 (0xE117E1FBEE4FC17E2D25A7E1A9670C0C)
Complete name                            : 03. Saw 3 (2006) [Director's Cut] 1080p H.265 [UKR_ENG] [Hurtom].
Format                                   :
Format version                           : Version 4
File size                                : 12.4 GiB
Duration                                 : 1 h 53 min
Overall bit rate                         : 15.7 Mb/s
Movie name                               : Пила 3 [Режисерська версія] / Saw 3 [Director's Cut] (2006)
Encoded date                             : UTC 2019-07-02 23:01:56
Writing application                      : v20.0.0 ('I Am The Sun') 64-bit
Writing library                          : libebml v1.3.5 + v1.4.8
Cover                                    : Yes
Attachments                              : Cover.png

Video
ID                                       : 1
Format                                   : HEVC
Format/Info                              : High Efficiency Video Coding
Format profile                           : Main [email protected]@High
Codec ID                                 : V_MPEGH/ISO/HEVC
Duration                                 : 1 h 53 min
Bit rate                                 : 14.6 Mb/s
Width                                    : 1 920 pixels
Height                                   : 1 080 pixels
Display aspect ratio                     : 16:9
Frame rate mode                          : Constant
Frame rate                               : 23.976 (24000/1001) FPS
Color space                              : YUV
Chroma subsampling                       : 4:2:0
Bit depth                                : 10 bits
Bits/(Pixel*Frame)                       : 0.294
Stream size                              : 11.6 GiB (93%)
Title                                    : Пила 3 [Режисерська версія] / Saw 3 [Director's Cut] (2006)
Writing library                          : x265 2.9+9-f74003e88622:[Windows][GCC 8.2.0][64 bit] 10bit
Encoding settings                        : cpuid=1049583 / frame-threads=5 / numa-pools=4 / wpp / no-pmode / no-pme / no-psnr / no-ssim / log-level=3 / input-csp=1 / input-res=1920x1080 / interlace=0 / total-frames=0 / level-idc=41 / high-tier=1 / uhd-bd=0 / ref=4 / allow-non-conformance / no-repeat-headers / annexb / no-aud / no-hrd / info / hash=0 / no-temporal-layers / open-gop / min-keyint=24 / keyint=240 / gop-lookahead=0 / bframes=12 / b-adapt=2 / b-pyramid / bframe-bias=0 / rc-lookahead=40 / lookahead-slices=6 / scenecut=40 / radl=0 / no-intra-refresh / ctu=32 / min-cu-size=8 / no-rect / no-amp / max-tu-size=32 / tu-inter-depth=4 / tu-intra-depth=4 / limit-tu=1 / rdoq-level=0 / dynamic-rd=0.00 / no-ssim-rd / signhide / no-tskip / nr-intra=0 / nr-inter=0 / no-constrained-intra / no-strong-intra-smoothing / max-merge=3 / limit-refs=3 / no-limit-modes / me=3 / subme=7 / merange=57 / temporal-mvp / weightp / no-weightb / no-analyze-src-pics / deblock=-3:-3 / no-sao / no-sao-non-deblock / rd=6 / no-early-skip / no-rskip / no-fast-intra / no-tskip-fast / no-cu-lossless / no-b-intra / no-splitrd-skip / rdpenalty=0 / psy-rd=2.00 / psy-rdoq=0.00 / no-rd-refine / no-lossless / cbqpoffs=0 / crqpoffs=0 / rc=crf / crf=18.0 / qcomp=0.60 / qpstep=4 / stats-write=0 / stats-read=0 / vbv-maxrate=50000 / vbv-bufsize=50000 / vbv-init=0.9 / crf-max=0.0 / crf-min=0.0 / ipratio=1.40 / pbratio=1.30 / aq-mode=3 / aq-strength=1.00 / no-cutree / zone-count=0 / no-strict-cbr / qg-size=32 / no-rc-grain / qpmax=69 / qpmin=0 / no-const-vbv / sar=1 / overscan=0 / videoformat=5 / range=0 / colorprim=1 / transfer=1 / colormatrix=1 / chromaloc=0 / display-window=0 / max-cll=0,0 / min-luma=0 / max-luma=1023 / log2-max-poc-lsb=8 / vui-timing-info / vui-hrd-info / slices=1 / no-opt-qp-pps / no-opt-ref-list-length-pps / no-multi-pass-opt-rps / scenecut-bias=0.05 / no-opt-cu-delta-qp / no-aq-motion / no-hdr / no-hdr-opt / no-dhdr10-opt / no-idr-recovery-sei / analysis-reuse-level=5 / scale-factor=0 / refine-intra=0 / refine-inter=0 / refine-mv=0 / no-limit-sao / ctu-info=0 / no-lowpass-dct / refine-mv-type=0 / copy-pic=1 / max-ausize-factor=1.0 / no-dynamic-refine / no-single-sei
Language                                 : English
Default                                  : Yes
Forced                                   : No
Color range                              : Limited
Color primaries                          : BT.709
Transfer characteristics                 : BT.709
Matrix coefficients                      : BT.709

Audio #1
ID                                       : 2
Format                                   : AC-3
Format/Info                              : Audio Coding 3
Commercial name                          : Dolby Digital
Codec ID                                 : A_AC3
Duration                                 : 1 h 53 min
Bit rate mode                            : Constant
Bit rate                                 : 384 kb/s
Channel(s)                               : 2 channels
Channel layout                           : L R
Sampling rate                            : 48.0 kHz
Frame rate                               : 31.250 FPS (1536 SPF)
Bit depth                                : 16 bits
Compression mode                         : Lossy
Stream size                              : 312 MiB (2%)
Title                                    : БЗ - ICTV, TB+
Language                                 : Ukrainian
Service kind                             : Complete Main
Default                                  : Yes
Forced                                   : Yes

Audio #2
ID                                       : 3
Format                                   : AC-3
Format/Info                              : Audio Coding 3
Commercial name                          : Dolby Digital
Codec ID                                 : A_AC3
Duration                                 : 1 h 53 min
Bit rate mode                            : Constant
Bit rate                                 : 640 kb/s
Channel(s)                               : 6 channels
Channel layout                           : L R C LFE Ls Rs
Sampling rate                            : 48.0 kHz
Frame rate                               : 31.250 FPS (1536 SPF)
Bit depth                                : 16 bits
Compression mode                         : Lossy
Stream size                              : 521 MiB (4%)
Title                                    : Original
Language                                 : English
Service kind                             : Complete Main
Default                                  : No
Forced                                   : No

Text
ID                                       : 4
Format                                   : UTF-8
Codec ID                                 : S_TEXT/UTF8
Codec ID/Info                            : UTF-8 Plain Text
Duration                                 : 1 h 48 min
Bit rate                                 : 33 b/s
Count of elements                        : 998
Stream size                              : 26.8 KiB (0%)
Title                                    : Full
Language                                 : English
Default                                  : No
Forced                                   : No

Menu
00:00:00.000                             : en:Trapped
00:05:00.634                             : en:Is It Him?
00:11:29.767                             : en:Dangerous Footage
00:13:31.001                             : en:Make Your Choise
00:18:51.235                             : en:Simple Question
00:26:05.302                             : en:Test Subjects
00:28:35.469                             : en:Game of Life
00:31:10.836                             : en:Dylan's Doll
00:34:36.869                             : en:Out of the Box
00:40:52.269                             : en:Cold Hearted Feelings
00:45:06.237                             : en:Tools to Save a Life
00:51:07.205                             : en:Stronger Now
00:54:34.073                             : en:Worldly Possessions
00:58:30.941                             : en:Remember Me?
01:03:04.909                             : en:Brain Surgery
01:09:30.343                             : en:State of Distress
01:12:01.077                             : en:Setting the Stage
01:16:21.945                             : en:Emotional Weakness
01:20:22.978                             : en:Confrontation Chance
01:24:04.478                             : en:Are You a Murderer?
01:28:23.446                             : en:We Don't Need You
01:30:38.846                             : en:Disobeying Rules
01:37:13.146                             : en:Changing Lives
01:46:22.947                             : en:Decision Maker
01:49:00.000                             : en:End Credits
Світлини



4. Пила 4 (Режисерська версія) / Saw 4 (Director's Cut) (2007) 1080p H.265 Ukr/Eng | Sub Eng
Пила 4 (Режисерська версія) / Saw 4 (Director's Cut) (2007) 1080p H.265 Ukr/Eng | Sub Eng

Пила. Колекція [Режисерські версії] / Saw. Collection [Unrated] (2004-2017) 1080p H.265 Ukr/Eng | Sub Eng


Жанр: жахи, трилер, детектив
Країна: США
Кінокомпанія: Twisted Pictures
Режисер: Даррен Лінн Боусман
Актори: Тобін Белл, Костас Менділор, Скотт Паттерсон, Бетсі Расселл, Джулі Бенц, Міган Гуд, Марк Ролстон, Карло Рота, Грег Брайк, Лаура Гордон

Сюжет:
Отримавши звістку про вбивство детектива Керрі, два досвідчених співробітника ФБР, агент Страм і агент Перез, прибувають в поліцейську дільницю, щоб допомогти старому детективу Хоффману проаналізувати останню жахливу гру Пили і з'єднати всі частини головоломки.
Однак, коли капітан Рігг, останній поліцейський, незайманий пилкою, виявляється викрадений і залучений у жахливу гру маніяка, у офіцера залишається лише дев'яносто хвилин, щоб виявити ряд взаємопов'язаних пасток ... або опинитися перед обличчям їх нещадних наслідків.

Тривалість: 01:35:31
Якість:

Відео:
кодек: H.265 (HEVC)
розмір кадру: 1920 x 1080
бітрейт: 12 888 кб/с
бітова глибина: 10 біт

Увага! Перед завантаженням переконайтесь, що ваш пристрій відтворення (та/або ПЗ) підтримує H.265 (HEVC)

Аудіо # 1:
мова: українська
переклад: багатоголосий закадровий
кодек: AC-3 5.1
бітрейт: 384 кб/с

Аудіо # 2:
мова: англійська
переклад: оригінал
кодек: AC-3 5.1
бітрейт: 640 кб/с

Субтитри # 1: (Forced)
мова: українська
тип: програмні (м'які)
формат: *.srt

Субтитри # 2: (Full)
мова: англійська
тип: програмні (м'які)
формат: *.srt


Info
Код:
General
Unique ID                                : 163922044359747860093528643694388439181 (0x7B523CC4C9F8CF64B2F11EE47499E88D)
Complete name                            : 04. Saw 4 (2007) [Director's Cut] 1080p H.265 [UKR_ENG] [Hurtom].
Format                                   :
Format version                           : Version 4
File size                                : 9.27 GiB
Duration                                 : 1 h 35 min
Overall bit rate                         : 13.9 Mb/s
Movie name                               : Пила 4 [Режисерська версія] / Saw 4 [Director's Cut] (2007)
Encoded date                             : UTC 2019-07-02 22:52:38
Writing application                      : v20.0.0 ('I Am The Sun') 64-bit
Writing library                          : libebml v1.3.5 + v1.4.8
Cover                                    : Yes
Attachments                              : Cover.jpg

Video
ID                                       : 1
Format                                   : HEVC
Format/Info                              : High Efficiency Video Coding
Format profile                           : Main [email protected]@High
Codec ID                                 : V_MPEGH/ISO/HEVC
Duration                                 : 1 h 35 min
Bit rate                                 : 12.9 Mb/s
Width                                    : 1 920 pixels
Height                                   : 1 080 pixels
Display aspect ratio                     : 16:9
Frame rate mode                          : Constant
Frame rate                               : 23.976 (24000/1001) FPS
Color space                              : YUV
Chroma subsampling                       : 4:2:0
Bit depth                                : 10 bits
Bits/(Pixel*Frame)                       : 0.259
Stream size                              : 8.60 GiB (93%)
Title                                    : Пила 4 [Режисерська версія] / Saw 4 [Director's Cut] (2007)
Writing library                          : x265 2.9+9-f74003e88622:[Windows][GCC 8.2.0][64 bit] 10bit
Encoding settings                        : cpuid=1049583 / frame-threads=5 / numa-pools=4 / wpp / no-pmode / no-pme / no-psnr / no-ssim / log-level=3 / input-csp=1 / input-res=1920x1080 / interlace=0 / total-frames=0 / level-idc=41 / high-tier=1 / uhd-bd=0 / ref=4 / allow-non-conformance / no-repeat-headers / annexb / no-aud / no-hrd / info / hash=0 / no-temporal-layers / open-gop / min-keyint=24 / keyint=240 / gop-lookahead=0 / bframes=12 / b-adapt=2 / b-pyramid / bframe-bias=0 / rc-lookahead=40 / lookahead-slices=6 / scenecut=40 / radl=0 / no-intra-refresh / ctu=32 / min-cu-size=8 / no-rect / no-amp / max-tu-size=32 / tu-inter-depth=4 / tu-intra-depth=4 / limit-tu=1 / rdoq-level=0 / dynamic-rd=0.00 / no-ssim-rd / signhide / no-tskip / nr-intra=0 / nr-inter=0 / no-constrained-intra / no-strong-intra-smoothing / max-merge=3 / limit-refs=3 / no-limit-modes / me=3 / subme=7 / merange=57 / temporal-mvp / weightp / no-weightb / no-analyze-src-pics / deblock=-3:-3 / no-sao / no-sao-non-deblock / rd=6 / no-early-skip / no-rskip / no-fast-intra / no-tskip-fast / no-cu-lossless / no-b-intra / no-splitrd-skip / rdpenalty=0 / psy-rd=2.00 / psy-rdoq=0.00 / no-rd-refine / no-lossless / cbqpoffs=0 / crqpoffs=0 / rc=crf / crf=20.0 / qcomp=0.60 / qpstep=4 / stats-write=0 / stats-read=0 / vbv-maxrate=50000 / vbv-bufsize=50000 / vbv-init=0.9 / crf-max=0.0 / crf-min=0.0 / ipratio=1.40 / pbratio=1.30 / aq-mode=3 / aq-strength=1.00 / no-cutree / zone-count=0 / no-strict-cbr / qg-size=32 / no-rc-grain / qpmax=69 / qpmin=0 / no-const-vbv / sar=1 / overscan=0 / videoformat=5 / range=0 / colorprim=1 / transfer=1 / colormatrix=1 / chromaloc=0 / display-window=0 / max-cll=0,0 / min-luma=0 / max-luma=1023 / log2-max-poc-lsb=8 / vui-timing-info / vui-hrd-info / slices=1 / no-opt-qp-pps / no-opt-ref-list-length-pps / no-multi-pass-opt-rps / scenecut-bias=0.05 / no-opt-cu-delta-qp / no-aq-motion / no-hdr / no-hdr-opt / no-dhdr10-opt / no-idr-recovery-sei / analysis-reuse-level=5 / scale-factor=0 / refine-intra=0 / refine-inter=0 / refine-mv=0 / no-limit-sao / ctu-info=0 / no-lowpass-dct / refine-mv-type=0 / copy-pic=1 / max-ausize-factor=1.0 / no-dynamic-refine / no-single-sei
Language                                 : English
Default                                  : Yes
Forced                                   : No
Color range                              : Limited
Color primaries                          : BT.709
Transfer characteristics                 : BT.709
Matrix coefficients                      : BT.709

Audio #1
ID                                       : 2
Format                                   : AC-3
Format/Info                              : Audio Coding 3
Commercial name                          : Dolby Digital
Codec ID                                 : A_AC3
Duration                                 : 1 h 30 min
Bit rate mode                            : Constant
Bit rate                                 : 384 kb/s
Channel(s)                               : 6 channels
Channel layout                           : L R C LFE Ls Rs
Sampling rate                            : 48.0 kHz
Frame rate                               : 31.250 FPS (1536 SPF)
Bit depth                                : 16 bits
Compression mode                         : Lossy
Stream size                              : 248 MiB (3%)
Title                                    : БЗ - ICTV
Language                                 : Ukrainian
Service kind                             : Complete Main
Default                                  : Yes
Forced                                   : Yes

Audio #2
ID                                       : 3
Format                                   : AC-3
Format/Info                              : Audio Coding 3
Commercial name                          : Dolby Digital
Codec ID                                 : A_AC3
Duration                                 : 1 h 35 min
Bit rate mode                            : Constant
Bit rate                                 : 640 kb/s
Channel(s)                               : 6 channels
Channel layout                           : L R C LFE Ls Rs
Sampling rate                            : 48.0 kHz
Frame rate                               : 31.250 FPS (1536 SPF)
Bit depth                                : 16 bits
Compression mode                         : Lossy
Stream size                              : 437 MiB (5%)
Title                                    : Original
Language                                 : English
Service kind                             : Complete Main
Default                                  : No
Forced                                   : No

Text #1
ID                                       : 4
Format                                   : UTF-8
Codec ID                                 : S_TEXT/UTF8
Codec ID/Info                            : UTF-8 Plain Text
Duration                                 : 1 h 0 min
Bit rate                                 : 3 b/s
Count of elements                        : 40
Stream size                              : 1.36 KiB (0%)
Title                                    : Forced
Language                                 : Ukrainian
Default                                  : Yes
Forced                                   : Yes

Text #2
ID                                       : 5
Format                                   : UTF-8
Codec ID                                 : S_TEXT/UTF8
Codec ID/Info                            : UTF-8 Plain Text
Duration                                 : 1 h 27 min
Bit rate                                 : 46 b/s
Count of elements                        : 994
Stream size                              : 30.1 KiB (0%)
Title                                    : Full
Language                                 : English
Default                                  : No
Forced                                   : No

Menu
00:00:00.000                             : en:1. Play Me
00:06:09.410                             : en:2. Holding The Key
00:09:35.199                             : en:3. Cherish Your Life
00:15:11.911                             : en:4. Time To Let Go
00:19:04.101                             : en:5. Facing Obsession
00:25:55.303                             : en:6. Brenda's Game
00:32:19.062                             : en:7. It's You
00:39:46.634                             : en:8. What You've Been Looking For
00:43:11.880                             : en:9. Making Choices
00:46:39.463                             : en:10. Opening The Door
00:50:52.799                             : en:11. Being Recruited
00:52:39.739                             : en:12. It Will Come Back To You
01:01:20.718                             : en:13. Save as I Save
01:06:18.516                             : en:14. Making a Monster
01:17:38.362                             : en:15. Patience is a Virtue
01:24:57.217                             : en:16. Out of Your Hands
01:35:31.517                             : en:Chapter 17
Світлини



5. Пила 5 (Режисерська версія) / Saw 5 (Director's Cut) (2008) 1080p H.265 Ukr/Eng | Sub Eng
Пила 5 (Режисерська версія) / Saw 5 (Director's Cut) (2008) 1080p H.265 Ukr/Eng | Sub Eng

Пила. Колекція [Режисерські версії] / Saw. Collection [Unrated] (2004-2017) 1080p H.265 Ukr/Eng | Sub Eng


Жанр: жахи, трилер, детектив
Країна: США
Кінокомпанія: Twisted Pictures
Режисер: Даррен Лінн Боусман
Актори: Тобін Белл, Костас Менділор, Скотт Паттерсон, Бетсі Расселл, Джулі Бенц, Міган Гуд, Марк Ролстон, Карло Рота, Грег Брайк, Лаура Гордон

Сюжет:
Один із послідовників маніяка-вбивці Пили, Марк Хоффман, слідуючи заповітам свого кривавого гуру, готує чергову смертельну головоломку. Тим часом агент Страм починає здогадуватися про зв'язок Хоффмана з Пилою, і Хоффману доводиться вийти на нове полювання, щоб знищити всі ниточки, що ведуть до нього. П'ятьох незнайомим один з одним людей вже чекає жорстокий урок командної гри на виживання - ще більше крові, ще витонченішими пастки ... Страм йде слідами Хоффмана, намагаючись докопатися до причин, за яких він приєднався до Пили. Їх чекає зустріч лицем до лиця напередодні невідворотного і непередбачуваного фіналу.

Тривалість: 01:35:03
Якість:

Відео:
кодек: H.265 (HEVC)
розмір кадру: 1920 x 1080
бітрейт: 14 401 кб/с
бітова глибина: 10 біт

Увага! Перед завантаженням переконайтесь, що ваш пристрій відтворення (та/або ПЗ) підтримує H.265 (HEVC)

Аудіо # 1:
мова: українська
переклад: двоголосий закадровий | yuraflash & Golosisto4ka
кодек: AC-3 5.1
бітрейт: 384 кб/с

Аудіо # 2:
мова: англійська
переклад: оригінал
кодек: 5.1
бітрейт: 1510 кб/с

Субтитри # 1: (Full by abodnya)
мова: українська
тип: програмні (м'які)
формат: *.srt

Субтитри # 2-3: (Full, SDH)
мова: англійська
тип: програмні (м'які)
формат: *.srt


Info
Код:
General
Unique ID                                : 5476676913126580544669421426675000422 (0x41EC504EAAB11D31EE20BF362FFA466)
Complete name                            : 05. Saw 5 (2008) [Director's Cut] 1080p H.265 [UKR_ENG] [Hurtom].
Format                                   :
Format version                           : Version 4
File size                                : 10.8 GiB
Duration                                 : 1 h 35 min
Overall bit rate                         : 16.3 Mb/s
Movie name                               : Пила 5 [Режисерська версія] / Saw 5 [Director's Cut] (2008)
Encoded date                             : UTC 2019-10-08 18:45:48
Writing application                      : v20.0.0 ('I Am The Sun') 64-bit
Writing library                          : libebml v1.3.5 + v1.4.8
Cover                                    : Yes
Attachments                              : Cover.jpg

Video
ID                                       : 1
Format                                   : HEVC
Format/Info                              : High Efficiency Video Coding
Format profile                           : Main [email protected]@High
Codec ID                                 : V_MPEGH/ISO/HEVC
Duration                                 : 1 h 35 min
Bit rate                                 : 14.4 Mb/s
Width                                    : 1 920 pixels
Height                                   : 1 080 pixels
Display aspect ratio                     : 16:9
Frame rate mode                          : Constant
Frame rate                               : 23.976 (24000/1001) FPS
Color space                              : YUV
Chroma subsampling                       : 4:2:0
Bit depth                                : 10 bits
Bits/(Pixel*Frame)                       : 0.290
Stream size                              : 9.56 GiB (88%)
Title                                    : Пила 5 [Режисерська версія] / Saw 5 [Director's Cut] (2008)
Writing library                          : x265 3.1+11-de920e0a3183:[Windows][clang 8.0.1][64 bit] 10bit
Encoding settings                        : cpuid=1049583 / frame-threads=5 / numa-pools=4 / wpp / no-pmode / no-pme / no-psnr / no-ssim / log-level=3 / input-csp=1 / input-res=1920x1080 / interlace=0 / total-frames=0 / level-idc=41 / high-tier=1 / uhd-bd=0 / ref=4 / allow-non-conformance / no-repeat-headers / annexb / no-aud / no-hrd / info / hash=0 / no-temporal-layers / open-gop / min-keyint=24 / keyint=240 / gop-lookahead=0 / bframes=14 / b-adapt=2 / b-pyramid / bframe-bias=0 / rc-lookahead=40 / lookahead-slices=6 / scenecut=40 / radl=0 / no-splice / no-intra-refresh / ctu=32 / min-cu-size=8 / no-rect / no-amp / max-tu-size=32 / tu-inter-depth=4 / tu-intra-depth=4 / limit-tu=1 / rdoq-level=1 / dynamic-rd=0.00 / no-ssim-rd / signhide / no-tskip / nr-intra=0 / nr-inter=0 / no-constrained-intra / no-strong-intra-smoothing / max-merge=5 / limit-refs=1 / no-limit-modes / me=3 / subme=7 / merange=57 / temporal-mvp / no-hme / weightp / no-weightb / no-analyze-src-pics / deblock=-3:-3 / no-sao / no-sao-non-deblock / rd=3 / early-skip / no-rskip / no-fast-intra / no-tskip-fast / no-cu-lossless / b-intra / no-splitrd-skip / rdpenalty=0 / psy-rd=2.00 / psy-rdoq=1.00 / no-rd-refine / no-lossless / cbqpoffs=0 / crqpoffs=0 / rc=crf / crf=20.0 / qcomp=0.60 / qpstep=4 / stats-write=0 / stats-read=0 / vbv-maxrate=50000 / vbv-bufsize=50000 / vbv-init=0.9 / crf-max=0.0 / crf-min=0.0 / ipratio=1.40 / pbratio=1.30 / aq-mode=3 / aq-strength=1.00 / no-cutree / zone-count=0 / no-strict-cbr / qg-size=32 / no-rc-grain / qpmax=69 / qpmin=0 / no-const-vbv / sar=1 / overscan=0 / videoformat=5 / range=0 / colorprim=1 / transfer=1 / colormatrix=1 / chromaloc=0 / display-window=0cll=0,0 / min-luma=0 / max-luma=1023 / log2-max-poc-lsb=8 / vui-timing-info / vui-hrd-info / slices=1 / no-opt-qp-pps / no-opt-ref-list-length-pps / no-multi-pass-opt-rps / scenecut-bias=0.05 / no-opt-cu-delta-qp / no-aq-motion / no-hdr / no-hdr-opt / no-dhdr10-opt / no-idr-recovery-sei / analysis-reuse-level=5 / scale-factor=0 / refine-intra=0 / refine-inter=0 / refine-mv=0 / refine-ctu-distortion=0 / no-limit-sao / ctu-info=0 / no-lowpass-dct / refine-analysis-type=0 / copy-pic=1 / max-ausize-factor=1.0 / no-dynamic-refine / no-single-sei / no-hevc-aq / no-svt / no-field / qp-adaptation-range=1.00
Language                                 : English
Default                                  : Yes
Forced                                   : No
Color range                              : Limited
Color primaries                          : BT.709
Transfer characteristics                 : BT.709
Matrix coefficients                      : BT.709

Audio #1
ID                                       : 2
Format                                   : AC-3
Format/Info                              : Audio Coding 3
Commercial name                          : Dolby Digital
Codec ID                                 : A_AC3
Duration                                 : 1 h 35 min
Bit rate mode                            : Constant
Bit rate                                 : 384 kb/s
Channel(s)                               : 6 channels
Channel layout                           : L R C LFE Ls Rs
Sampling rate                            : 48.0 kHz
Frame rate                               : 31.250 FPS (1536 SPF)
Bit depth                                : 16 bits
Compression mode                         : Lossy
Stream size                              : 261 MiB (2%)
Title                                    : / 5.1 Ch / 448 kbps / ДЗ / yuraflash & Golosisto4ka
Language                                 : Ukrainian
Service kind                             : Complete Main
Default                                  : Yes
Forced                                   : Yes

Audio #2
ID                                       : 3
Format                                   :
Format/Info                              : Digital Theater Systems
Codec ID                                 : A_DTS
Duration                                 : 1 h 35 min
Bit rate mode                            : Constant
Bit rate                                 : 1 509 kb/s
Channel(s)                               : 6 channels
Channel layout                           : C L R Ls Rs LFE
Sampling rate                            : 48.0 kHz
Frame rate                               : 93.750 FPS (512 SPF)
Bit depth                                : 24 bits
Compression mode                         : Lossy
Stream size                              : 1.00 GiB (9%)
Title                                    : / 5.1 Ch / 1509 kbps / Original
Language                                 : English
Default                                  : No
Forced                                   : No

Text #1
ID                                       : 4
Format                                   : UTF-8
Codec ID                                 : S_TEXT/UTF8
Codec ID/Info                            : UTF-8 Plain Text
Duration                                 : 1 h 27 min
Bit rate                                 : 61 b/s
Count of elements                        : 744
Stream size                              : 39.4 KiB (0%)
Title                                    : Full
Language                                 : Ukrainian
Default                                  : Yes
Forced                                   : No

Text #2
ID                                       : 5
Format                                   : UTF-8
Codec ID                                 : S_TEXT/UTF8
Codec ID/Info                            : UTF-8 Plain Text
Duration                                 : 1 h 27 min
Bit rate                                 : 40 b/s
Count of elements                        : 744
Stream size                              : 26.1 KiB (0%)
Title                                    : Full
Language                                 : English
Default                                  : No
Forced                                   : No

Text #3
ID                                       : 6
Format                                   : UTF-8
Codec ID                                 : S_TEXT/UTF8
Codec ID/Info                            : UTF-8 Plain Text
Duration                                 : 1 h 28 min
Bit rate                                 : 41 b/s
Count of elements                        : 800
Stream size                              : 27.3 KiB (0%)
Title                                    : SDH
Language                                 : English
Default                                  : No
Forced                                   : No

Menu
00:00:00.000                             : en:00:00:00.000
00:00:02.002                             : en:00:00:02.002
00:06:10.787                             : en:00:06:10.787
00:12:15.485                             : en:00:12:15.485
00:15:25.716                             : en:00:15:25.716
00:22:02.446                             : en:00:22:02.446
00:28:42.721                             : en:00:28:42.721
00:34:33.446                             : en:00:34:33.446
00:36:41.116                             : en:00:36:41.116
00:42:15.533                             : en:00:42:15.533
00:49:40.686                             : en:00:49:40.686
00:51:51.734                             : en:00:51:51.734
01:00:23.036                             : en:01:00:23.036
01:05:29.259                             : en:01:05:29.259
01:11:33.039                             : en:01:11:33.039
01:17:09.458                             : en:01:17:09.458
01:25:30.709                             : en:01:25:30.709
Світлини



6. Пила 6 (Режисерська версія) / Saw 6 (Director's Cut) (2009) 1080p H.265 Ukr/Eng | Sub Eng
Пила 6 (Режисерська версія) / Saw 6 (Director's Cut) (2009) 1080p H.265 Ukr/Eng | Sub Eng

Пила. Колекція [Режисерські версії] / Saw. Collection [Unrated] (2004-2017) 1080p H.265 Ukr/Eng | Sub Eng


Жанр: жахи, трилер, детектив
Країна: США
Кінокомпанія: Twisted Pictures
Режисер: Кевін Гротерт
Актори: Тобін Белл, Костас Манділор, Марк Ролстон, Бетсі Расселл, Шоуні Сміт, Пітер Аутербрідж, Саманта Лемоул, Танедра Говард

Сюжет:
Спеціальний агент Страм мертвий і немає жодних сумнівів в тому, що детектив Хоффман є продовжувачем справи Конструктора. Але коли ФБР сідає йому на слід, він вимушений знов почати Гру, що нарешті розставляє всі крапки над i в грандіозному плані Конструктора.

Тривалість: 01:31:39
Якість:

Відео:
кодек: H.265 (HEVC)
розмір кадру: 1920 x 1080
бітрейт: 13 344 кб/с
бітова глибина: 10 біт

Увага! Перед завантаженням переконайтесь, що ваш пристрій відтворення (та/або ПЗ) підтримує H.265 (HEVC)

Аудіо # 1:
мова: українська
переклад: професійний дубльований
кодек: AC-3 5.1
бітрейт: 448 кб/с

Аудіо # 2:
мова: англійська
переклад: оригінал
кодек: 5.1
бітрейт: 1510 кб/с

Субтитри # 1: (Forced)
мова: українська
тип: програмні (м'які)
формат: *.srt

Субтитри # 2: (Full)
мова: англійська
тип: програмні (м'які)
формат: *.srt


Info
Код:
General
Unique ID                                : 238393157912723816976342422229800130053 (0xB358DA2597A98B18470122D368AF1605)
Complete name                            : 06. Saw 6 (2009) [Director's Cut] 1080p H.265 [UKR_ENG] [Hurtom].
Format                                   :
Format version                           : Version 4
File size                                : 9.80 GiB
Duration                                 : 1 h 31 min
Overall bit rate                         : 15.3 Mb/s
Movie name                               : Пила VI (Режисерська версія) / Saw VI (Director's Cut) (2009)
Encoded date                             : UTC 2019-10-10 11:30:20
Writing application                      : v20.0.0 ('I Am The Sun') 64-bit
Writing library                          : libebml v1.3.5 + v1.4.8
Cover                                    : Yes
Attachments                              : Cover.jpg

Video
ID                                       : 1
Format                                   : HEVC
Format/Info                              : High Efficiency Video Coding
Format profile                           : Main [email protected]@High
Codec ID                                 : V_MPEGH/ISO/HEVC
Duration                                 : 1 h 31 min
Bit rate                                 : 13.3 Mb/s
Width                                    : 1 920 pixels
Height                                   : 1 080 pixels
Display aspect ratio                     : 16:9
Frame rate mode                          : Constant
Frame rate                               : 23.976 (24000/1001) FPS
Color space                              : YUV
Chroma subsampling                       : 4:2:0
Bit depth                                : 10 bits
Bits/(Pixel*Frame)                       : 0.268
Stream size                              : 8.54 GiB (87%)
Title                                    : Пила VI (Режисерська версія) / Saw VI (Director's Cut) (2009)
Writing library                          : x265 3.1+11-de920e0a3183:[Windows][clang 8.0.1][64 bit] 10bit
Encoding settings                        : cpuid=1049583 / frame-threads=5 / numa-pools=4 / wpp / no-pmode / no-pme / no-psnr / no-ssim / log-level=3 / input-csp=1 / input-res=1920x1080 / interlace=0 / total-frames=0 / level-idc=41 / high-tier=1 / uhd-bd=0 / ref=4 / allow-non-conformance / no-repeat-headers / annexb / no-aud / no-hrd / info / hash=0 / no-temporal-layers / open-gop / min-keyint=24 / keyint=240 / gop-lookahead=0 / bframes=16 / b-adapt=2 / b-pyramid / bframe-bias=0 / rc-lookahead=40 / lookahead-slices=6 / scenecut=40 / radl=0 / no-splice / no-intra-refresh / ctu=32 / min-cu-size=8 / no-rect / no-amp / max-tu-size=32 / tu-inter-depth=4 / tu-intra-depth=4 / limit-tu=1 / rdoq-level=1 / dynamic-rd=0.00 / no-ssim-rd / signhide / no-tskip / nr-intra=0 / nr-inter=0 / no-constrained-intra / no-strong-intra-smoothing / max-merge=5 / limit-refs=1 / no-limit-modes / me=3 / subme=7 / merange=57 / temporal-mvp / no-hme / weightp / no-weightb / no-analyze-src-pics / deblock=-3:-3 / no-sao / no-sao-non-deblock / rd=3 / early-skip / no-rskip / no-fast-intra / no-tskip-fast / no-cu-lossless / b-intra / no-splitrd-skip / rdpenalty=0 / psy-rd=2.00 / psy-rdoq=1.00 / no-rd-refine / no-lossless / cbqpoffs=0 / crqpoffs=0 / rc=crf / crf=20.0 / qcomp=0.60 / qpstep=4 / stats-write=0 / stats-read=0 / vbv-maxrate=50000 / vbv-bufsize=50000 / vbv-init=0.9 / crf-max=0.0 / crf-min=0.0 / ipratio=1.40 / pbratio=1.30 / aq-mode=3 / aq-strength=1.00 / no-cutree / zone-count=0 / no-strict-cbr / qg-size=32 / no-rc-grain / qpmax=69 / qpmin=0 / no-const-vbv / sar=1 / overscan=0 / videoformat=5 / range=0 / colorprim=1 / transfer=1 / colormatrix=1 / chromaloc=0 / display-window=0cll=0,0 / min-luma=0 / max-luma=1023 / log2-max-poc-lsb=8 / vui-timing-info / vui-hrd-info / slices=1 / no-opt-qp-pps / no-opt-ref-list-length-pps / no-multi-pass-opt-rps / scenecut-bias=0.05 / no-opt-cu-delta-qp / no-aq-motion / no-hdr / no-hdr-opt / no-dhdr10-opt / no-idr-recovery-sei / analysis-reuse-level=5 / scale-factor=0 / refine-intra=0 / refine-inter=0 / refine-mv=0 / refine-ctu-distortion=0 / no-limit-sao / ctu-info=0 / no-lowpass-dct / refine-analysis-type=0 / copy-pic=1 / max-ausize-factor=1.0 / no-dynamic-refine / no-single-sei / no-hevc-aq / no-svt / no-field / qp-adaptation-range=1.00
Language                                 : English
Default                                  : Yes
Forced                                   : No
Color range                              : Limited
Color primaries                          : BT.709
Transfer characteristics                 : BT.709
Matrix coefficients                      : BT.709

Audio #1
ID                                       : 2
Format                                   : AC-3
Format/Info                              : Audio Coding 3
Commercial name                          : Dolby Digital
Codec ID                                 : A_AC3
Duration                                 : 1 h 31 min
Bit rate mode                            : Constant
Bit rate                                 : 448 kb/s
Channel(s)                               : 6 channels
Channel layout                           : L R C LFE Ls Rs
Sampling rate                            : 48.0 kHz
Frame rate                               : 31.250 FPS (1536 SPF)
Bit depth                                : 16 bits
Compression mode                         : Lossy
Stream size                              : 294 MiB (3%)
Title                                    : / 5.1 Ch / 448 kbps / ПД / DVD
Language                                 : Ukrainian
Service kind                             : Complete Main
Default                                  : Yes
Forced                                   : Yes

Audio #2
ID                                       : 3
Format                                   :
Format/Info                              : Digital Theater Systems
Codec ID                                 : A_DTS
Duration                                 : 1 h 31 min
Bit rate mode                            : Constant
Bit rate                                 : 1 509 kb/s
Channel(s)                               : 6 channels
Channel layout                           : C L R Ls Rs LFE
Sampling rate                            : 48.0 kHz
Frame rate                               : 93.750 FPS (512 SPF)
Bit depth                                : 24 bits
Compression mode                         : Lossy
Stream size                              : 989 MiB (10%)
Title                                    : / 5.1 Ch / 1509 kbps / Original
Language                                 : English
Default                                  : No
Forced                                   : No

Text #1
ID                                       : 4
Format                                   : UTF-8
Codec ID                                 : S_TEXT/UTF8
Codec ID/Info                            : UTF-8 Plain Text
Duration                                 : 34 min 29 s
Bit rate                                 : 4 b/s
Count of elements                        : 19
Stream size                              : 1.01 KiB (0%)
Title                                    : Forced
Language                                 : Ukrainian
Default                                  : Yes
Forced                                   : Yes

Text #2
ID                                       : 5
Format                                   : UTF-8
Codec ID                                 : S_TEXT/UTF8
Codec ID/Info                            : UTF-8 Plain Text
Duration                                 : 1 h 29 min
Bit rate                                 : 54 b/s
Count of elements                        : 859
Stream size                              : 35.6 KiB (0%)
Title                                    : Full
Language                                 : English
Default                                  : No
Forced                                   : No

Menu
00:00:00.000                             : en:(01)00:00:00:000
00:06:05.990                             : en:(02)00:06:05:990
00:12:24.785                             : en:(03)00:12:24:785
00:16:58.767                             : en:(04)00:16:58:767
00:20:32.689                             : en:(05)00:20:32:689
00:24:28.175                             : en:(06)00:24:28:175
00:33:17.829                             : en:(07)00:33:17:829
00:36:51.458                             : en:(08)00:36:51:458
00:41:14.263                             : en:(09)00:41:14:263
00:48:13.640                             : en:(10)00:48:13:640
00:52:27.310                             : en:(11)00:52:27:310
00:55:03.049                             : en:(12)00:55:03:049
01:01:20.259                             : en:(13)01:01:20:259
01:08:12.421                             : en:(14)01:08:12:421
01:15:27.814                             : en:(15)01:15:27:814
01:20:51.054                             : en:(16)01:20:51:054
01:31:39.076                             : en:(17)01:31:39:076
Світлини



7. Пила 3D (Режисерська версія) / Saw 3D (Director's Cut) (2010) 1080p H.265 Ukr/Eng | Sub Ukr/Eng
Пила 3D (Режисерська версія) / Saw 3D (Director's Cut) (2010) 1080p H.265 Ukr/Eng | Sub Ukr/Eng

Пила. Колекція [Режисерські версії] / Saw. Collection [Unrated] (2004-2017) 1080p H.265 Ukr/Eng | Sub Eng


Жанр: жахи, трилер, детектив
Країна: США
Кінокомпанія: Lionsgate Films
Режисер: Кевін Гротерт / Kevin Greutert
Актори: Костас Менділор, Шон Патрік Фленері, Тобін Белл, Кері Елвіс, Бетсі Расселл, Дін Армстронг, Чед Донелла, Джина Холден, Наомі Снікус, Ребекка Маршалл та інші

Сюжет:
Жертви Пили, які вижили в попередніх випробуваннях, звертаються за психологічною допомогою до товариша по нещастю Боббі Дагена. Але коли його власні темні таємниці спливають на світ, розв'язується нова хвиля терору. Нова частина захоплюючої серії фільмів "Пила"

Тривалість: 01:30:11
Якість:

Відео:
кодек: H.265 (HEVC)
розмір кадру: 1920 x 1080
бітрейт: 17 820 кб/с
бітова глибина: 10 біт

Увага! Перед завантаженням переконайтесь, що ваш пристрій відтворення (та/або ПЗ) підтримує H.265 (HEVC)

Аудіо # 1:
мова: українська
переклад: багатоголосий закадровий
кодек: AC-3 5.1
бітрейт: 384 кб/с
Про озвучення
Переклад:
theAleXX, Tarasyk, imonko, Barmivah, Deluxeman, abodnya, liongre, Demigodua, sorciere, taredo, The_Marlboro
Ролі озвучували:
Олексій Семенов, Михайло Литвин, Ігор Лущай, Олексій Петренко, Світлана Литвин, Анастасія Ковбасенко, ua2004 та Ще одна людина
Робота зі звуком: Олексій Бодня

Ролі озвучували представники ARYstudio, Filiza Studio, Hurtom.com та MTV Україна
Подяка за технічну підтримку UATeam
Аудіо # 2:
мова: англійська
переклад: оригінал
кодек: 5.1
бітрейт: 1510 кб/с

Субтитри # 1: (Full)
мова: українська
тип: програмні (м'які)
формат: *.srt

Субтитри # 2: (Full)
мова: англійська
тип: програмні (м'які)
формат: *.srt


Info
Код:
General
Unique ID                                : 10827071734429781437852198204541896108 (0x82537D9BFC132C98A1307D324C605AC)
Complete name                            : 07. Saw 3D (2010) [Director's Cut] 1080p H.265 [UKR_ENG] [Hurtom].
Format                                   :
Format version                           : Version 4
File size                                : 12.4 GiB
Duration                                 : 1 h 30 min
Overall bit rate                         : 19.7 Mb/s
Movie name                               : Пила 3D [Розширена версія] / Saw 3D [Director's Cut] (2010)
Encoded date                             : UTC 2019-12-13 23:12:28
Writing application                      : v20.0.0 ('I Am The Sun') 64-bit
Writing library                          : libebml v1.3.5 + v1.4.8
Attachments                              : Saw 7.jpg

Video
ID                                       : 1
Format                                   : HEVC
Format/Info                              : High Efficiency Video Coding
Format profile                           : Main [email protected]@High
Codec ID                                 : V_MPEGH/ISO/HEVC
Duration                                 : 1 h 30 min
Bit rate                                 : 17.8 Mb/s
Width                                    : 1 920 pixels
Height                                   : 1 080 pixels
Display aspect ratio                     : 16:9
Frame rate mode                          : Constant
Frame rate                               : 23.976 (24000/1001) FPS
Color space                              : YUV
Chroma subsampling                       : 4:2:0
Bit depth                                : 10 bits
Bits/(Pixel*Frame)                       : 0.358
Stream size                              : 11.2 GiB (90%)
Title                                    : Пила 3D [Розширена версія] / Saw 3D [Director's Cut] (2010)
Writing library                          : x265 3.1+11-de920e0a3183:[Windows][clang 8.0.1][64 bit] 10bit
Encoding settings                        : cpuid=1049583 / frame-threads=5 / numa-pools=4 / wpp / no-pmode / no-pme / no-psnr / no-ssim / log-level=3 / input-csp=1 / input-res=1920x1080 / interlace=0 / total-frames=0 / level-idc=41 / high-tier=1 / uhd-bd=0 / ref=4 / allow-non-conformance / no-repeat-headers / annexb / no-aud / no-hrd / info / hash=0 / no-temporal-layers / open-gop / min-keyint=24 / keyint=240 / gop-lookahead=0 / bframes=16 / b-adapt=2 / b-pyramid / bframe-bias=0 / rc-lookahead=40 / lookahead-slices=6 / scenecut=40 / radl=0 / no-splice / no-intra-refresh / ctu=32 / min-cu-size=8 / no-rect / no-amp / max-tu-size=32 / tu-inter-depth=4 / tu-intra-depth=4 / limit-tu=1 / rdoq-level=1 / dynamic-rd=0.00 / no-ssim-rd / signhide / no-tskip / nr-intra=0 / nr-inter=0 / no-constrained-intra / no-strong-intra-smoothing / max-merge=5 / limit-refs=1 / no-limit-modes / me=3 / subme=7 / merange=57 / temporal-mvp / no-hme / weightp / no-weightb / no-analyze-src-pics / deblock=-3:-3 / no-sao / no-sao-non-deblock / rd=3 / early-skip / no-rskip / no-fast-intra / no-tskip-fast / no-cu-lossless / b-intra / no-splitrd-skip / rdpenalty=0 / psy-rd=2.00 / psy-rdoq=1.00 / no-rd-refine / no-lossless / cbqpoffs=0 / crqpoffs=0 / rc=crf / crf=20.0 / qcomp=0.60 / qpstep=4 / stats-write=0 / stats-read=0 / vbv-maxrate=50000 / vbv-bufsize=50000 / vbv-init=0.9 / crf-max=0.0 / crf-min=0.0 / ipratio=1.40 / pbratio=1.30 / aq-mode=3 / aq-strength=1.00 / no-cutree / zone-count=0 / no-strict-cbr / qg-size=32 / no-rc-grain / qpmax=69 / qpmin=0 / no-const-vbv / sar=1 / overscan=0 / videoformat=5 / range=0 / colorprim=2 / transfer=2 / colormatrix=2 / chromaloc=0 / display-window=0cll=0,0 / min-luma=0 / max-luma=1023 / log2-max-poc-lsb=8 / vui-timing-info / vui-hrd-info / slices=1 / no-opt-qp-pps / no-opt-ref-list-length-pps / no-multi-pass-opt-rps / scenecut-bias=0.05 / no-opt-cu-delta-qp / no-aq-motion / no-hdr / no-hdr-opt / no-dhdr10-opt / no-idr-recovery-sei / analysis-reuse-level=5 / scale-factor=0 / refine-intra=0 / refine-inter=0 / refine-mv=0 / refine-ctu-distortion=0 / no-limit-sao / ctu-info=0 / no-lowpass-dct / refine-analysis-type=0 / copy-pic=1 / max-ausize-factor=1.0 / no-dynamic-refine / no-single-sei / no-hevc-aq / no-svt / no-field / qp-adaptation-range=1.00
Language                                 : English
Default                                  : Yes
Forced                                   : No
Color range                              : Limited

Audio #1
ID                                       : 2
Format                                   : AC-3
Format/Info                              : Audio Coding 3
Commercial name                          : Dolby Digital
Codec ID                                 : A_AC3
Duration                                 : 1 h 30 min
Bit rate mode                            : Constant
Bit rate                                 : 384 kb/s
Channel(s)                               : 6 channels
Channel layout                           : L R C LFE Ls Rs
Sampling rate                            : 48.0 kHz
Frame rate                               : 31.250 FPS (1536 SPF)
Bit depth                                : 16 bits
Compression mode                         : Lossy
Stream size                              : 248 MiB (2%)
Title                                    : / 5.1 Ch / 384 kbps / БЗ
Language                                 : Ukrainian
Service kind                             : Complete Main
Default                                  : Yes
Forced                                   : Yes

Audio #2
ID                                       : 3
Format                                   :
Format/Info                              : Digital Theater Systems
Codec ID                                 : A_DTS
Duration                                 : 1 h 30 min
Bit rate mode                            : Constant
Bit rate                                 : 1 509 kb/s
Channel(s)                               : 6 channels
Channel layout                           : C L R Ls Rs LFE
Sampling rate                            : 48.0 kHz
Frame rate                               : 93.750 FPS (512 SPF)
Bit depth                                : 24 bits
Compression mode                         : Lossy
Stream size                              : 973 MiB (8%)
Title                                    : / 5.1 Ch / 1509 kbps / Original
Language                                 : English
Default                                  : No
Forced                                   : No

Text #1
ID                                       : 4
Format                                   : UTF-8
Codec ID                                 : S_TEXT/UTF8
Codec ID/Info                            : UTF-8 Plain Text
Duration                                 : 1 h 24 min
Bit rate                                 : 68 b/s
Count of elements                        : 989
Stream size                              : 42.5 KiB (0%)
Title                                    : Full
Language                                 : Ukrainian
Default                                  : Yes
Forced                                   : No

Text #2
ID                                       : 5
Format                                   : UTF-8
Codec ID                                 : S_TEXT/UTF8
Codec ID/Info                            : UTF-8 Plain Text
Duration                                 : 1 h 24 min
Bit rate                                 : 50 b/s
Count of elements                        : 991
Stream size                              : 31.0 KiB (0%)
Title                                    : Full
Language                                 : English
Default                                  : No
Forced                                   : No

Menu
00:00:00.000                             : en:Chapter 1
00:05:13.479                             : en:Chapter 2
00:12:58.652                             : en:Chapter 3
00:17:16.785                             : en:Chapter 4
00:22:07.743                             : en:Chapter 5
00:27:29.230                             : en:Chapter 6
00:36:06.956                             : en:Chapter 7
00:43:04.206                             : en:Chapter 8
00:47:54.413                             : en:Chapter 9
00:52:00.826                             : en:Chapter 10
00:57:09.926                             : en:Chapter 11
01:03:09.076                             : en:Chapter 12
01:10:28.890                             : en:Chapter 13
01:14:13.573                             : en:Chapter 14
01:19:01.153                             : en:Chapter 15
01:23:47.188                             : en:Chapter 16
Світлини



8. Пила 8 / Jigsaw (2017) 1080p H.265 Ukr/Eng | Sub Eng
Пила 8 / Jigsaw (2017) 1080p H.265 Ukr/Eng | Sub Eng

Пила. Колекція [Режисерські версії] / Saw. Collection [Unrated] (2004-2017) 1080p H.265 Ukr/Eng | Sub Eng


Жанр: детектив, трилер, жахи
Країна: США, Канада
Кінокомпанія: Lionsgate, Serendipity Productions, Twisted Pictures, A Bigger Boat
Режисер: Майкл Спіріґ, Пітер Спіріґ
Актори: Тобін Белл, Лора Вандервурт, Метт Пассмор, Ганна Андерсон, Каллум Кіт Ренні, Мандела Ван Піблз, Брітані Аллен, Кле Беннетт, Пол Браунштейн, Джозіа Блек

Сюжет:
По всьому місту знаходять трупи різних людей. Причому очевидно, що вони всі помирали дуже оригінальними і не надто приємними способами. У всіх цих вбивствах простежується почерк усім відомого маніяка Джона Крамера, також відомого як Пила. Навіть вирізані на тілі жертв шрами у вигляді пазла ще більше доводять цю гіпотезу. Але ж цей серійний вбивця давно помер... Невже він повернувся з того світу, щоб надалі отримувати задоволення від мук жертв? Або хтось вирішив продовжити його справу з іще більшою ретельністю? Багато безневинних загинуть, поки хтось дізнається правду.

Тривалість: 01:31:56
Якість: (Власний Rip)

Відео:
кодек: H.265 (HEVC)
розмір кадру: 1920 x 804
бітрейт: 4 459 кб/с
бітова глибина: 10 біт

Увага! Перед завантаженням переконайтесь, що ваш пристрій відтворення (та/або ПЗ) підтримує H.265 (HEVC)

Аудіо # 1:
мова: українська
переклад: професійний дубльований | студія Pie Post Production
кодек: AC-3 2.0
бітрейт: 192 кб/с

Аудіо # 2:
мова: англійська
переклад: оригінал
кодек: 5.1
бітрейт: 1510 кб/с

Субтитри # 1-3: (Full, SDH, SDH-Colored)
мова: англійська
тип: програмні (м'які)
формат: *.srt


Info
Код:
General
Unique ID                                : 340157883774369517560709727983416640886 (0xFFE80681CC08922D3F82DF7737940576)
Complete name                            : 08. Jigsaw (2017) 1080p H.265 [UKR_ENG] [Hurtom].
Format                                   :
Format version                           : Version 4
File size                                : 3.96 GiB
Duration                                 : 1 h 32 min
Overall bit rate                         : 6 160 kb/s
Movie name                               : Пила 8 / Jigsaw (2017)
Encoded date                             : UTC 2019-09-08 08:42:14
Writing application                      : v20.0.0 ('I Am The Sun') 64-bit
Writing library                          : libebml v1.3.5 + v1.4.8
Cover                                    : Yes
Attachments                              : Cover.jpg

Video
ID                                       : 1
Format                                   : HEVC
Format/Info                              : High Efficiency Video Coding
Format profile                           : Main [email protected]@High
Codec ID                                 : V_MPEGH/ISO/HEVC
Duration                                 : 1 h 31 min
Bit rate                                 : 4 459 kb/s
Width                                    : 1 920 pixels
Height                                   : 804 pixels
Display aspect ratio                     : 2.40:1
Frame rate mode                          : Constant
Frame rate                               : 23.976 (24000/1001) FPS
Color space                              : YUV
Chroma subsampling                       : 4:2:0
Bit depth                                : 10 bits
Bits/(Pixel*Frame)                       : 0.120
Stream size                              : 2.86 GiB (72%)
Title                                    : Пила 8 / Jigsaw (2017)
Writing library                          : x265 3.1+11-de920e0a3183:[Windows][clang 8.0.0][64 bit] 10bit
Encoding settings                        : cpuid=1111039 / frame-threads=9 / numa-pools=8 / wpp / no-pmode / no-pme / no-psnr / no-ssim / log-level=3 / input-csp=1 / input-res=1920x804 / interlace=0 / total-frames=0 / level-idc=51 / high-tier=1 / uhd-bd=0 / ref=5 / allow-non-conformance / no-repeat-headers / annexb / no-aud / no-hrd / info / hash=0 / no-temporal-layers / open-gop / min-keyint=24 / keyint=240 / gop-lookahead=0 / bframes=8 / b-adapt=2 / b-pyramid / bframe-bias=0 / rc-lookahead=40 / lookahead-slices=5 / scenecut=40 / radl=0 / no-splice / no-intra-refresh / ctu=64 / min-cu-size=8 / rect / amp / max-tu-size=32 / tu-inter-depth=4 / tu-intra-depth=4 / limit-tu=0 / rdoq-level=2 / dynamic-rd=0.00 / no-ssim-rd / signhide / no-tskip / nr-intra=0 / nr-inter=0 / no-constrained-intra / no-strong-intra-smoothing / max-merge=3 / limit-refs=1 / no-limit-modes / me=3 / subme=7 / merange=57 / temporal-mvp / no-hme / weightp / weightb / no-analyze-src-pics / deblock=-3:-3 / no-sao / no-sao-non-deblock / rd=6 / no-early-skip / rskip / no-fast-intra / no-tskip-fast / no-cu-lossless / b-intra / no-splitrd-skip / rdpenalty=0 / psy-rd=2.00 / psy-rdoq=1.00 / no-rd-refine / no-lossless / cbqpoffs=0 / crqpoffs=0 / rc=crf / crf=18.0 / qcomp=0.65 / qpstep=4 / stats-write=0 / stats-read=0 / vbv-maxrate=50000 / vbv-bufsize=50000 / vbv-init=0.9 / crf-max=0.0 / crf-min=0.0 / ipratio=1.40 / pbratio=1.30 / aq-mode=1 / aq-strength=1.00 / cutree / zone-count=0 / no-strict-cbr / qg-size=32 / no-rc-grain / qpmax=69 / qpmin=0 / no-const-vbv / sar=1 / overscan=0 / videoformat=5 / range=0 / colorprim=2 / transfer=2 / colormatrix=2 / chromaloc=0 / display-window=0cll=0,0 / min-luma=0 / max-luma=1023 / log2-max-poc-lsb=8 / vui-timing-info / vui-hrd-info / slices=1 / no-opt-qp-pps / no-opt-ref-list-length-pps / no-multi-pass-opt-rps / scenecut-bias=0.05 / no-opt-cu-delta-qp / no-aq-motion / no-hdr / no-hdr-opt / no-dhdr10-opt / no-idr-recovery-sei / analysis-reuse-level=5 / scale-factor=0 / refine-intra=0 / refine-inter=0 / refine-mv=0 / refine-ctu-distortion=0 / no-limit-sao / ctu-info=0 / no-lowpass-dct / refine-analysis-type=0 / copy-pic=1 / max-ausize-factor=1.0 / no-dynamic-refine / no-single-sei / no-hevc-aq / no-svt / no-field / qp-adaptation-range=1.00
Default                                  : Yes
Forced                                   : No
Color range                              : Limited

Audio #1
ID                                       : 2
Format                                   : AC-3
Format/Info                              : Audio Coding 3
Commercial name                          : Dolby Digital
Codec ID                                 : A_AC3
Duration                                 : 1 h 32 min
Bit rate mode                            : Constant
Bit rate                                 : 192 kb/s
Channel(s)                               : 2 channels
Channel layout                           : L R
Sampling rate                            : 48.0 kHz
Frame rate                               : 31.250 FPS (1536 SPF)
Bit depth                                : 16 bits
Compression mode                         : Lossy
Stream size                              : 126 MiB (3%)
Title                                    : / 2.0 Ch / 192 kbps / ПД / Студія Pie Post Production
Language                                 : Ukrainian
Service kind                             : Complete Main
Default                                  : Yes
Forced                                   : Yes

Audio #2
ID                                       : 3
Format                                   :
Format/Info                              : Digital Theater Systems
Codec ID                                 : A_DTS
Duration                                 : 1 h 31 min
Bit rate mode                            : Constant
Bit rate                                 : 1 509 kb/s
Channel(s)                               : 6 channels
Channel layout                           : C L R Ls Rs LFE
Sampling rate                            : 48.0 kHz
Frame rate                               : 93.750 FPS (512 SPF)
Bit depth                                : 16 bits
Compression mode                         : Lossy
Stream size                              : 992 MiB (24%)
Title                                    : / 5.1 Ch / 1509 kbps / Original
Language                                 : English
Default                                  : No
Forced                                   : No

Text #1
ID                                       : 4
Format                                   : UTF-8
Codec ID                                 : S_TEXT/UTF8
Codec ID/Info                            : UTF-8 Plain Text
Duration                                 : 1 h 24 min
Bit rate                                 : 54 b/s
Count of elements                        : 1274
Stream size                              : 33.5 KiB (0%)
Title                                    : Full
Language                                 : English
Default                                  : No
Forced                                   : No

Text #2
ID                                       : 5
Format                                   : UTF-8
Codec ID                                 : S_TEXT/UTF8
Codec ID/Info                            : UTF-8 Plain Text
Duration                                 : 1 h 24 min
Bit rate                                 : 61 b/s
Count of elements                        : 1384
Stream size                              : 37.9 KiB (0%)
Title                                    : SDH
Language                                 : English
Default                                  : No
Forced                                   : No

Text #3
ID                                       : 6
Format                                   : UTF-8
Codec ID                                 : S_TEXT/UTF8
Codec ID/Info                            : UTF-8 Plain Text
Duration                                 : 1 h 24 min
Bit rate                                 : 113 b/s
Count of elements                        : 1384
Stream size                              : 69.8 KiB (0%)
Title                                    : SDH-Colored
Language                                 : English
Default                                  : No
Forced                                   : No

Menu
00:00:00.000                             : en:Chapter 1
00:03:46.976                             : en:Chapter 2
00:10:39.847                             : en:Chapter 3
00:14:09.974                             : en:Chapter 4
00:22:39.608                             : en:Chapter 5
00:29:03.408                             : en:Chapter 6
00:35:18.533                             : en:Chapter 7
00:40:38.519                             : en:Chapter 8
00:43:09.211                             : en:Chapter 9
00:46:12.352                             : en:Chapter 10
00:52:00.742                             : en:Chapter 11
00:56:34.224                             : en:Chapter 12
01:04:13.849                             : en:Chapter 13
01:09:17.569                             : en:Chapter 14
01:13:33.283                             : en:Chapter 15
01:23:31.089                             : en:Chapter 16
Світлини




Джерело: &
Особиста оцінка: 10 - без зайвих вагань рекомендую всім!


Золотий реліз (завантажене не впливає на рейтинг)
 Трекер:    Зареєстрований   

Завантажити / скачати фільм українською



відео для новачків



 Зареєстрований:   2019-12-14 02:05
 Розмір:   80.65 GB 
 Оцінка фільму:   9.4/10 (Голосів: 15)
   
bot 
робот


З нами з: 30.09.07
Востаннє: 26.05.05
Повідомлень: 26925

2019-12-11 01:19  
Тему перенесено з Фільми в HD до форуму Анонси релізів


-Star-Lord-

karpov777 
Новенький


З нами з: 11.06.17
Востаннє: 29.05.20
Повідомлень: 2

2019-12-11 12:49  
скажїть будь ласка коли ця збїрка з,явиться на толоцї?
bot 
робот


З нами з: 30.09.07
Востаннє: 26.05.05
Повідомлень: 26925

2019-12-14 02:05  
Тему перенесено з Анонси релізів до форуму Фільми в HD


-Star-Lord-

Ruslan Kozak 
Частий відвідувач


З нами з: 17.06.16
Востаннє: 16.01.21
Повідомлень: 37

2019-12-14 11:45  
Судячи з усього, комусь восьма частина дуже не сподобалась... То може треба було її зробити 720р ? Wide grin
MakRA 
VIP


З нами з: 10.11.18
Востаннє: 18.01.21
Повідомлень: 1166

2019-12-14 17:46  
Ruslan Kozak написано:
То може треба було її зробити 720р ?

720p є на сайті https://toloka.to/t86454

Anonymous 







2019-12-14 20:03  
Ruslan Kozak
Якщо глянути на параметри кодування, то можна побачити, що в останній частині виставлено crf=18, в усіх інших - 20. А це говорить про те, що остання частина більш якісна, ніж попередні. Перші 7 частин зашумлені, від цього такий розмір.

Akio Furukawa 
Поважний учасник


З нами з: 02.11.19
Востаннє: 19.01.21
Повідомлень: 154

2021-01-14 21:52  
Найперший фільм мені дуже сподобався, проте з подальшим розвитком сюжету як завжди з таким підходом вийшло не надто. Найменше сподобався 3-й фільм. Після 4-го вирішив не продовжувати. Забагато гуро, почасти занадто відвертого. На деяких сценах просто затуляв екран рукою, аби не знудило.
1 — 10/10
2 — 8/10
3 — 3/10
4 — 6/10
І цього досить

Ваш часовий пояс: GMT + 2 Години

Нова тема   Відповісти