Тачки. Трилогія / Cars. Trilogy (2006/2011/2017) 1080p H.265 Ukr/Eng | Sub Ukr/Eng

Нові коментарі

Нова тема   Відповісти
Автор Повідомлення
Anonymous 







2019-12-10 13:33  
Тачки. Трилогія / Cars. Trilogy (2006/2011/2017) 1080p H.265 Ukr/Eng | Sub Ukr/Eng

Тачки. Трилогія / Cars. Trilogy (2006/2011/2017) 1080p H.265 Ukr/Eng | Sub Ukr/Eng

1. 2. 3.

1. Тачки / Cars (2006) 1080p H.265 Ukr/Eng | Sub Ukr/Eng
Тачки / Cars (2006) 1080p H.265 Ukr/Eng | Sub Ukr/Eng

Тачки. Трилогія / Cars. Trilogy (2006/2011/2017) 1080p H.265 Ukr/Eng | Sub Ukr/Eng


Жанр: анімація, комедія, сімейний, спорт / animation, comedy, family, sport
Країна: США / USA
Кінокомпанія: Walt Disney Pictures, Pixar Animation Studios
Режисер: Джон Лессетер, Джо Ранфт
Ролі озвучили: Овен Вілсон, Пол Ньюмен, Бонні Гант, Ларрі Кабельник, Чіч Марін, Тоні Шелгоуб , Ґвідо Квароні, Майкл Кітон, Джеремі Півен, Том Генкс, Біллі Крістал, Джон Ґудмен, Тім Аллен, Арнольд Шварценеґер та інші.

Сюжет:
Неприборканий в своєму бажанні завжди і у всьому перемагати гоночний автомобіль «Блискавка» МакКвін раптом виявляє, що збився з дороги і застряг в маленькому глухому містечку Радіаторний-Рай, що знаходиться десь на трасі 66 в Каліфорнії.

Беручи участь в гонках на Кубок Поршня, де йому протистояли два дуже досвідчених суперника, МакКвін абсолютно не чекав, що віднині йому доведеться спілкуватися з персонажами зовсім іншого роду. Це, наприклад, Салі — шикарний Порше 2002-го року випуску, Док Гадсон — легковичок моделі «Гудзон Горнет», 1951-го року випуску або Сирник — іржавий вантажівочка-евакуатор. І всі вони допомагають МакКвіну зрозуміти, що в світі існують деякі важливіші речі, ніж слава, призи і спонсори.

Тривалість: 01:56:35
Якість:

Відео:
кодек: H.265 (HEVC)
розмір кадру: 1920 x 800
бітрейт: 7 229 кб/с
бітова глибина: 10 біт

Увага! Перед завантаженням переконайтесь, що ваш пристрій відтворення (та/або ПЗ) підтримує H.265 (HEVC)

Аудіо # 1:
мова: українська
озвучення: професійне дубльоване
кодек: AC-3 5.1
бітрейт: 640 кб/с

Аудіо # 2:
мова: англійська
озвучення: оригінал
кодек: 5.1
бітрейт: 1511 кб/с

Субтитри # 1-2: (Forced, Full)
мова: українська
тип: програмні (м'які)
формат: *.srt

Субтитри # 3-4: (Full, SDH)
мова: англійська
тип: програмні (м'які)
формат: *.srt


Інформація про файл
Код:
General
Unique ID                                : 222409298198347264875701143451941564745 (0xA7527904E6ADE28F69F4ED19185D7149)
Complete name                            : 1. Cars (2006) 1080p H.265 [UKR_ENG] [Hurtom].
Format                                   :
Format version                           : Version 4
File size                                : 7.63 GiB
Duration                                 : 1 h 56 min
Overall bit rate                         : 9 373 kb/s
Movie name                               : Тачки / Cars (2006)
Encoded date                             : UTC 2020-11-29 12:09:38
Writing application                      : v20.0.0 ('I Am The Sun') 64-bit
Writing library                          : libebml v1.3.5 + v1.4.8
Cover                                    : Yes
Attachments                              : Cover.jpg

Video
ID                                       : 1
Format                                   : HEVC
Format/Info                              : High Efficiency Video Coding
Format profile                           : Main [email protected]@High
Codec ID                                 : V_MPEGH/ISO/HEVC
Duration                                 : 1 h 56 min
Bit rate                                 : 7 228 kb/s
Width                                    : 1 920 pixels
Height                                   : 800 pixels
Display aspect ratio                     : 2.40:1
Frame rate mode                          : Constant
Frame rate                               : 23.976 (24000/1001) FPS
Color space                              : YUV
Chroma subsampling                       : 4:2:0
Bit depth                                : 10 bits
Bits/(Pixel*Frame)                       : 0.196
Stream size                              : 5.89 GiB (77%)
Title                                    : Тачки / Cars (2006)
Writing library                          : x265 2.9+9-f74003e88622:[Windows][GCC 7.3.0][64 bit] 10bit
Encoding settings                        : cpuid=1111039 / frame-threads=13 / numa-pools=12 / wpp / no-pmode / no-pme / no-psnr / no-ssim / log-level=3 / input-csp=1 / input-res=1920x800 / interlace=0 / total-frames=0 / level-idc=41 / high-tier=1 / uhd-bd=0 / ref=5 / allow-non-conformance / no-repeat-headers / annexb / no-aud / no-hrd / info / hash=0 / no-temporal-layers / open-gop / min-keyint=24 / keyint=240 / gop-lookahead=0 / bframes=9 / b-adapt=2 / b-pyramid / bframe-bias=0 / rc-lookahead=60 / lookahead-slices=4 / scenecut=40 / radl=0 / no-intra-refresh / ctu=32 / min-cu-size=8 / rect / amp / max-tu-size=32 / tu-inter-depth=4 / tu-intra-depth=4 / limit-tu=1 / rdoq-level=2 / dynamic-rd=0.00 / no-ssim-rd / signhide / no-tskip / nr-intra=0 / nr-inter=0 / no-constrained-intra / no-strong-intra-smoothing / max-merge=4 / limit-refs=2 / limit-modes / me=3 / subme=7 / merange=57 / temporal-mvp / weightp / weightb / no-analyze-src-pics / deblock=-3:-3 / no-sao / no-sao-non-deblock / rd=6 / no-early-skip / no-rskip / no-fast-intra / no-tskip-fast / no-cu-lossless / no-b-intra / no-splitrd-skip / rdpenalty=0 / psy-rd=2.00 / psy-rdoq=1.00 / no-rd-refine / no-lossless / cbqpoffs=0 / crqpoffs=0 / rc=crf / crf=18.0 / qcomp=0.60 / qpstep=1 / stats-write=0 / stats-read=0 / vbv-maxrate=50000 / vbv-bufsize=50000 / vbv-init=0.9 / crf-max=30.0 / crf-min=0.0 / ipratio=1.40 / pbratio=1.30 / aq-mode=1 / aq-strength=0.90 / no-cutree / zone-count=0 / no-strict-cbr / qg-size=32 / no-rc-grain / qpmax=69 / qpmin=0 / no-const-vbv / sar=1 / overscan=0 / videoformat=5 / range=0 / colorprim=2 / transfer=2 / colormatrix=2 / chromaloc=0 / display-window=0 / max-cll=0,0 / min-luma=0 / max-luma=1023 / log2-max-poc-lsb=8 / vui-timing-info / vui-hrd-info / slices=1 / no-opt-qp-pps / no-opt-ref-list-length-pps / no-multi-pass-opt-rps / scenecut-bias=0.05 / no-opt-cu-delta-qp / no-aq-motion / no-hdr / no-hdr-opt / no-dhdr10-opt / no-idr-recovery-sei / analysis-reuse-level=5 / scale-factor=0 / refine-intra=0 / refine-inter=0 / refine-mv=0 / no-limit-sao / ctu-info=0 / no-lowpass-dct / refine-mv-type=0 / copy-pic=1 / max-ausize-factor=1.0 / no-dynamic-refine / no-single-sei
Default                                  : Yes
Forced                                   : No

Audio #1
ID                                       : 2
Format                                   : AC-3
Format/Info                              : Audio Coding 3
Commercial name                          : Dolby Digital
Codec ID                                 : A_AC3
Duration                                 : 1 h 56 min
Bit rate mode                            : Constant
Bit rate                                 : 640 kb/s
Channel(s)                               : 6 channels
Channel layout                           : L R C LFE Ls Rs
Sampling rate                            : 48.0 kHz
Frame rate                               : 31.250 FPS (1536 SPF)
Compression mode                         : Lossy
Stream size                              : 532 MiB (7%)
Title                                    : AC-3 / 5.1 Ch / 640 kbps / DUB / Blu-Ray
Language                                 : Ukrainian
Service kind                             : Complete Main
Default                                  : Yes
Forced                                   : Yes

Audio #2
ID                                       : 3
Format                                   :
Format/Info                              : Digital Theater Systems
Codec ID                                 : A_DTS
Duration                                 : 1 h 56 min
Bit rate mode                            : Constant
Bit rate                                 : 1 510 kb/s
Channel(s)                               : 6 channels
Channel layout                           : C L R Ls Rs LFE
Sampling rate                            : 48.0 kHz
Frame rate                               : 93.750 FPS (512 SPF)
Bit depth                                : 24 bits
Compression mode                         : Lossy
Stream size                              : 1.22 GiB (16%)
Title                                    : / 5.1 Ch / 1509 kbps / Original
Language                                 : English
Default                                  : No
Forced                                   : No

Text #1
ID                                       : 4
Format                                   : UTF-8
Codec ID                                 : S_TEXT/UTF8
Codec ID/Info                            : UTF-8 Plain Text
Duration                                 : 1 h 51 min
Bit rate                                 : 5 b/s
Count of elements                        : 148
Stream size                              : 4.64 KiB (0%)
Title                                    : Forced
Language                                 : Ukrainian
Default                                  : Yes
Forced                                   : Yes

Text #2
ID                                       : 5
Format                                   : UTF-8
Codec ID                                 : S_TEXT/UTF8
Codec ID/Info                            : UTF-8 Plain Text
Duration                                 : 1 h 55 min
Bit rate                                 : 103 b/s
Count of elements                        : 1588
Stream size                              : 87.1 KiB (0%)
Title                                    : Full
Language                                 : Ukrainian
Default                                  : No
Forced                                   : No

Text #3
ID                                       : 6
Format                                   : UTF-8
Codec ID                                 : S_TEXT/UTF8
Codec ID/Info                            : UTF-8 Plain Text
Duration                                 : 1 h 55 min
Bit rate                                 : 65 b/s
Count of elements                        : 1440
Stream size                              : 55.2 KiB (0%)
Title                                    : Full
Language                                 : English
Default                                  : No
Forced                                   : No

Text #4
ID                                       : 7
Format                                   : UTF-8
Codec ID                                 : S_TEXT/UTF8
Codec ID/Info                            : UTF-8 Plain Text
Duration                                 : 1 h 55 min
Bit rate                                 : 88 b/s
Count of elements                        : 1727
Stream size                              : 75.0 KiB (0%)
Title                                    : SDH
Language                                 : English
Default                                  : No
Forced                                   : No

Menu
00:00:00.000                             : en:Dinoco 400
00:09:27.692                             : en:Victory Lane
00:13:38.108                             : en:Rust-Eze
00:16:09.134                             : en:"Life Is a Highway"
00:19:42.764                             : en:Lost
00:24:23.170                             : en:Into Town
00:27:16.843                             : en:Where's Mcqueen?
00:28:02.055                             : en:The Impound
00:29:31.436                             : en:Traffic Court
00:33:47.567                             : en:Bessie
00:35:43.558                             : en:Customers!
00:41:40.456                             : en:Doc's Challenge
00:45:45.868                             : en:A New Road
00:48:30.324                             : en:Turn Right to Go Left
00:50:28.775                             : en:Back to Work
00:54:30.475                             : en:Tractor Tipping
00:57:37.495                             : en:Backwards Driving
01:01:19.050                             : en:Goodnight
01:02:48.389                             : en:Doc's Piston Cups
01:05:32.553                             : en:Breakfast at Flo's
01:07:32.882                             : en:Drive with Sally
01:09:39.091                             : en:Wheel Well
01:11:17.022                             : en:"Our Town"
01:14:51.236                             : en:Stampede
01:15:47.584                             : en:Doc Races
01:20:03.924                             : en:He's Gone
01:22:11.468                             : en:A New Customer
01:24:48.583                             : en:Cruisin'
01:27:21.527                             : en:Mcqueen Is Found
01:32:26.791                             : en:California Race
01:46:07.402                             : en:Back on the Map
01:48:21.620                             : en:Epilogue
Світлини



2. Тачки 2 / Cars 2 (2011) 1080p H.265 Ukr/Eng | Sub Ukr/Eng
Тачки 2 / Cars 2 (2011) 1080p H.265 Ukr/Eng | Sub Ukr/Eng

Тачки. Трилогія / Cars. Trilogy (2006/2011/2017) 1080p H.265 Ukr/Eng | Sub Ukr/Eng


Жанр: анімація, пригодницький, комедія
Країна: США
Кінокомпанія: Walt Disney Pictures, Pixar Animation Studios
Режисер: Джон Лассетер (John Lasseter), Бред Л’юїс (Brad Lewis)
Ролі озвучили: Овен Вілсон, Ларрі Кабельник, Майкл Кейн, Емілі Мортімер, Едді Іззард, Джон Туртурро, Бонні Гант, Франко Неро, Тоні Шелгоуб, Брюс Кембелл, Чіч Марін, Ґвідо Квароні, Пітер Джакобсон та інші.

Сюжет:
Блискавка МакКвін і його друг Сирник вирушають в міжнародну подорож - коли МакКвін отримує шанс брати участь в змаганнях для найшвидших машин в світі, Світовому Гран-Прі. Етапи цих престижних гонок заведуть друзів у Токіо, на набережні Парижа, на узбережжя Італії, і на вулиці туманного Лондона.

Тривалість: 01:47:01
Якість:

Відео:
кодек: H.265 (HEVC)
розмір кадру: 1920 x 800
бітрейт: 4 879 кб/с
бітова глибина: 10 біт

Увага! Перед завантаженням переконайтесь, що ваш пристрій відтворення (та/або ПЗ) підтримує H.265 (HEVC)

Аудіо # 1:
мова: українська
озвучення: професійне дубльоване
кодек: AC-3 5.1
бітрейт: 640 кб/с

Аудіо # 2:
мова: англійська
озвучення: оригінал
кодек: -ES 5.1
бітрейт: 1510 кб/с

Аудіо # 3:
мова: англійська
озвучення: оригінал | коментарі
кодек: 2.0
бітрейт: 64 кб/с

Субтитри # 1-2: (Forced, Full)
мова: українська
тип: програмні (м'які)
формат: *.srt

Субтитри # 3-5: (Forced, Full, SDH)
мова: англійська
тип: програмні (м'які)
формат: *.srt


Інформація про файл
Код:
General
Unique ID                                : 262106064128638748351154545907746852786 (0xC52FCAB032EE8DC604DA1AE76859CFB2)
Complete name                            : 2. Cars 2 (2011) 1080p H.265 [UKR_ENG] [Hurtom].
Format                                   :
Format version                           : Version 4
File size                                : 5.30 GiB
Duration                                 : 1 h 47 min
Overall bit rate                         : 7 096 kb/s
Movie name                               : Тачки 2 / Cars 2 (2011)
Encoded date                             : UTC 2020-11-29 12:13:04
Writing application                      : v20.0.0 ('I Am The Sun') 64-bit
Writing library                          : libebml v1.3.5 + v1.4.8
Cover                                    : Yes
Attachments                              : Cover.jpg

Video
ID                                       : 1
Format                                   : HEVC
Format/Info                              : High Efficiency Video Coding
Format profile                           : Main [email protected]@High
Codec ID                                 : V_MPEGH/ISO/HEVC
Duration                                 : 1 h 47 min
Bit rate                                 : 4 879 kb/s
Width                                    : 1 920 pixels
Height                                   : 800 pixels
Display aspect ratio                     : 2.40:1
Frame rate mode                          : Constant
Frame rate                               : 23.976 (24000/1001) FPS
Color space                              : YUV
Chroma subsampling                       : 4:2:0
Bit depth                                : 10 bits
Bits/(Pixel*Frame)                       : 0.132
Stream size                              : 3.65 GiB (69%)
Title                                    : Тачки 2 / Cars 2 (2011)
Writing library                          : x265 2.9+9-f74003e88622:[Windows][GCC 7.3.0][64 bit] 10bit
Encoding settings                        : cpuid=1111039 / frame-threads=13 / numa-pools=12 / wpp / no-pmode / no-pme / no-psnr / no-ssim / log-level=3 / input-csp=1 / input-res=1920x800 / interlace=0 / total-frames=0 / level-idc=41 / high-tier=1 / uhd-bd=0 / ref=5 / allow-non-conformance / no-repeat-headers / annexb / no-aud / no-hrd / info / hash=0 / no-temporal-layers / open-gop / min-keyint=24 / keyint=240 / gop-lookahead=0 / bframes=9 / b-adapt=2 / b-pyramid / bframe-bias=0 / rc-lookahead=60 / lookahead-slices=4 / scenecut=40 / radl=0 / no-intra-refresh / ctu=32 / min-cu-size=8 / rect / amp / max-tu-size=32 / tu-inter-depth=4 / tu-intra-depth=4 / limit-tu=1 / rdoq-level=2 / dynamic-rd=0.00 / no-ssim-rd / signhide / no-tskip / nr-intra=0 / nr-inter=0 / no-constrained-intra / no-strong-intra-smoothing / max-merge=4 / limit-refs=2 / limit-modes / me=3 / subme=7 / merange=57 / temporal-mvp / weightp / weightb / no-analyze-src-pics / deblock=-3:-3 / no-sao / no-sao-non-deblock / rd=6 / no-early-skip / no-rskip / no-fast-intra / no-tskip-fast / no-cu-lossless / no-b-intra / no-splitrd-skip / rdpenalty=0 / psy-rd=2.00 / psy-rdoq=1.00 / no-rd-refine / no-lossless / cbqpoffs=0 / crqpoffs=0 / rc=crf / crf=18.0 / qcomp=0.60 / qpstep=1 / stats-write=0 / stats-read=0 / vbv-maxrate=50000 / vbv-bufsize=50000 / vbv-init=0.9 / crf-max=30.0 / crf-min=0.0 / ipratio=1.40 / pbratio=1.30 / aq-mode=1 / aq-strength=0.90 / no-cutree / zone-count=0 / no-strict-cbr / qg-size=32 / no-rc-grain / qpmax=69 / qpmin=0 / no-const-vbv / sar=1 / overscan=0 / videoformat=5 / range=0 / colorprim=2 / transfer=2 / colormatrix=2 / chromaloc=0 / display-window=0 / max-cll=0,0 / min-luma=0 / max-luma=1023 / log2-max-poc-lsb=8 / vui-timing-info / vui-hrd-info / slices=1 / no-opt-qp-pps / no-opt-ref-list-length-pps / no-multi-pass-opt-rps / scenecut-bias=0.05 / no-opt-cu-delta-qp / no-aq-motion / no-hdr / no-hdr-opt / no-dhdr10-opt / no-idr-recovery-sei / analysis-reuse-level=5 / scale-factor=0 / refine-intra=0 / refine-inter=0 / refine-mv=0 / no-limit-sao / ctu-info=0 / no-lowpass-dct / refine-mv-type=0 / copy-pic=1 / max-ausize-factor=1.0 / no-dynamic-refine / no-single-sei
Default                                  : Yes
Forced                                   : No

Audio #1
ID                                       : 2
Format                                   : AC-3
Format/Info                              : Audio Coding 3
Commercial name                          : Dolby Digital
Codec ID                                 : A_AC3
Duration                                 : 1 h 47 min
Bit rate mode                            : Constant
Bit rate                                 : 640 kb/s
Channel(s)                               : 6 channels
Channel layout                           : L R C LFE Ls Rs
Sampling rate                            : 48.0 kHz
Frame rate                               : 31.250 FPS (1536 SPF)
Compression mode                         : Lossy
Stream size                              : 490 MiB (9%)
Title                                    : AC-3 / 5.1 Ch / 640 kbps / DUB / Blu-Ray
Language                                 : Ukrainian
Service kind                             : Complete Main
Default                                  : Yes
Forced                                   : Yes

Audio #2
ID                                       : 3
Format                                   : ES
Format/Info                              : Digital Theater Systems
Commercial name                          : -ES Matrix
Codec ID                                 : A_DTS
Duration                                 : 1 h 47 min
Bit rate mode                            : Constant
Bit rate                                 : 1 509 kb/s
Channel(s)                               : 6 channels
Channel(s)_Original                      : 7 channels
ChannelLayout_Original                   : C L R Ls Rs Cs LFE
Sampling rate                            : 48.0 kHz
Frame rate                               : 93.750 FPS (512 SPF)
Bit depth                                : 16 bits
Compression mode                         : Lossy
Delay relative to video                  : 11 ms
Stream size                              : 1.13 GiB (21%)
Title                                    : -ES / 5.1 Ch / 1509 kbps / Original
Language                                 : English
Default                                  : No
Forced                                   : No

Audio #3
ID                                       : 4
Format                                   : LC SBR
Format/Info                              : Advanced Audio Codec Low Complexity with Spectral Band Replication
Commercial name                          : HE-
Format settings                          : Explicit
Codec ID                                 : A_AAC-2
Duration                                 : 1 h 47 min
Bit rate                                 : 64.0 kb/s
Channel(s)                               : 2 channels
Channel layout                           : L R
Sampling rate                            : 48.0 kHz
Frame rate                               : 23.438 FPS (2048 SPF)
Compression mode                         : Lossy
Stream size                              : 49.0 MiB (1%)
Title                                    : / 2.0 Ch / 64 kbps / Original / Commentary
Language                                 : English
Default                                  : No
Forced                                   : No

Text #1
ID                                       : 5
Format                                   : UTF-8
Codec ID                                 : S_TEXT/UTF8
Codec ID/Info                            : UTF-8 Plain Text
Duration                                 : 1 h 31 min
Bit rate                                 : 1 b/s
Count of elements                        : 17
Stream size                              : 872 Bytes (0%)
Title                                    : Forced
Language                                 : Ukrainian
Default                                  : Yes
Forced                                   : Yes

Text #2
ID                                       : 6
Format                                   : UTF-8
Codec ID                                 : S_TEXT/UTF8
Codec ID/Info                            : UTF-8 Plain Text
Duration                                 : 1 h 37 min
Bit rate                                 : 127 b/s
Count of elements                        : 1534
Stream size                              : 91.3 KiB (0%)
Title                                    : Full
Language                                 : Ukrainian
Default                                  : No
Forced                                   : No

Text #3
ID                                       : 7
Format                                   : UTF-8
Codec ID                                 : S_TEXT/UTF8
Codec ID/Info                            : UTF-8 Plain Text
Duration                                 : 12 min 9 s
Bit rate                                 : 0 b/s
Count of elements                        : 2
Stream size                              : 33.0 Bytes (0%)
Title                                    : Forced
Language                                 : English
Default                                  : No
Forced                                   : No

Text #4
ID                                       : 8
Format                                   : UTF-8
Codec ID                                 : S_TEXT/UTF8
Codec ID/Info                            : UTF-8 Plain Text
Duration                                 : 1 h 37 min
Bit rate                                 : 89 b/s
Count of elements                        : 1625
Stream size                              : 63.7 KiB (0%)
Title                                    : Full
Language                                 : English
Default                                  : No
Forced                                   : No

Text #5
ID                                       : 9
Format                                   : UTF-8
Codec ID                                 : S_TEXT/UTF8
Codec ID/Info                            : UTF-8 Plain Text
Duration                                 : 1 h 37 min
Bit rate                                 : 86 b/s
Count of elements                        : 1664
Stream size                              : 61.9 KiB (0%)
Title                                    : SDH
Language                                 : English
Default                                  : No
Forced                                   : No

Menu
00:00:00.000                             : en:Communique
00:01:29.172                             : en:Meet Finn
00:04:47.579                             : en:Escape
00:07:43.672                             : en:Radiator Springs
00:12:07.894                             : en:Mater Calls In
00:17:48.943                             : en:Travel Montage
00:20:01.325                             : en:Party
00:22:51.537                             : en:The Meet
00:26:34.634                             : en:Bathroom
00:30:30.161                             : en:Lemons' Lair
00:32:41.960                             : en:Japan Broadcast
00:34:13.509                             : en:First Lap
00:37:15.566                             : en:Mater's Date
00:40:44.150                             : en:Victory Lane
00:42:53.154                             : en:Airpot
00:46:18.567                             : en:Mater's Note
00:46:57.940                             : en:Agent Mater
00:49:48.527                             : en:Paris
00:53:56.399                             : en:Holley's Big Idea
00:54:57.252                             : en:Uncle Topolino
00:57:36.202                             : en:Spy Train
00:59:27.730                             : en:Porto Corsa
01:02:16.941                             : en:Infiltrating The Casino
01:05:56.285                             : en:Lemon-heads
01:12:31.764                             : en:Mater Warns McQueen
01:14:05.899                             : en:Mater's Flashback
01:15:24.186                             : en:Big Bentley
01:21:12.992                             : en:The Bomb
01:23:22.247                             : en:London Chase
01:29:06.924                             : en:Buckingham Palace
01:31:48.127                             : en:Knighting Ceremony
01:32:41.222                             : en:Epilogue
01:38:18.600                             : en:End Credits
Світлини



3. Тачки 3 / Cars 3 (2017) 1080p H.265 Ukr/Eng | Sub Eng
Тачки 3 / Cars 3 (2017) 1080p H.265 Ukr/Eng | Sub Eng

Тачки. Трилогія / Cars. Trilogy (2006/2011/2017) 1080p H.265 Ukr/Eng | Sub Ukr/Eng


Жанр: комедія, мультфільм, пригоди, сімейний, спорт
Країна: США
Кінокомпанія: Walt Disney Pictures, Pixar Animation Studios
Режисер: Брайан Фі
Ролі озвучують: Овен Вілсон, Армі Гаммер, Натан Філліон, Керрі Вашінгтон, Бонні Хант, Крістела Алонзо, Марго Мартіндейл, Тоні Шелуб

Сюжет:
Блискавка МакКвін вирішує довести новому поколінню гонщиків, що він все ще є кращою тачкою у світі.

Тривалість: 01:42:24
Якість:

Відео:
кодек: H.265 (HEVC)
розмір кадру: 1920 x 804
бітрейт: 6 207 кб/с
бітова глибина: 10 біт

Увага! Перед завантаженням переконайтесь, що ваш пристрій відтворення (та/або ПЗ) підтримує H.265 (HEVC)

Аудіо # 1:
мова: українська
озвучення: професійне дубльоване
кодек: 5.1
бітрейт: 1510 кб/с

Аудіо # 2:
мова: англійська
озвучення: оригінал
кодек: 5.1
бітрейт: 1510 кб/с

Аудіо # 3:
мова: англійська
озвучення: оригінал | Commentary by Director Brian Fee, Producer Kevin Reher, Co-Producer Andrea Warren, and Creative Director Jay Ward
кодек: AC-3 2.0
бітрейт: 320 кб/с

Субтитри # 1: (Forced)
мова: українська
тип: програмні (м'які)
формат: *.srt

Субтитри # 2-6: (Full, SDH, SDH-Colored, Commentary by Director Brian Fee, Producer Kevin Reher, Co-Producer Andrea Warren, and Creative Director Jay Ward, SDH-Commentary by Director Brian Fee, Producer Kevin Reher, Co-Producer Andrea Warren, and Creative Director Jay Ward)
мова: англійська
тип: програмні (м'які)
формат: *.srt


Інформація про файл
Код:
General
Unique ID                                : 239027009370589081955314390507911384129 (0xB3D2ED6FBFEA29AF9EB7CA4A307C0C41)
Complete name                            : 3. Cars 3 (2017) 1080p H.265 [UKR_ENG] [Hurtom].
Format                                   :
Format version                           : Version 4
File size                                : 6.83 GiB
Duration                                 : 1 h 42 min
Overall bit rate                         : 9 553 kb/s
Movie name                               : Тачки 3 / Cars 3 (2017)
Encoded date                             : UTC 2020-11-29 13:08:13
Writing application                      : v20.0.0 ('I Am The Sun') 64-bit
Writing library                          : libebml v1.3.5 + v1.4.8
Cover                                    : Yes
Attachments                              : cover

Video
ID                                       : 1
Format                                   : HEVC
Format/Info                              : High Efficiency Video Coding
Format profile                           : Main [email protected]@High
Codec ID                                 : V_MPEGH/ISO/HEVC
Duration                                 : 1 h 42 min
Bit rate                                 : 6 207 kb/s
Width                                    : 1 920 pixels
Height                                   : 804 pixels
Display aspect ratio                     : 2.40:1
Frame rate mode                          : Constant
Frame rate                               : 23.976 (24000/1001) FPS
Color space                              : YUV
Chroma subsampling                       : 4:2:0
Bit depth                                : 10 bits
Bits/(Pixel*Frame)                       : 0.168
Stream size                              : 4.44 GiB (65%)
Title                                    : Тачки 3 / Cars 3 (2017)
Writing library                          : x265 2.9+9-f74003e88622:[Windows][GCC 7.3.0][64 bit] 10bit
Encoding settings                        : cpuid=1111039 / frame-threads=13 / numa-pools=12 / wpp / no-pmode / no-pme / no-psnr / no-ssim / log-level=3 / input-csp=1 / input-res=1920x804 / interlace=0 / total-frames=0 / level-idc=41 / high-tier=1 / uhd-bd=0 / ref=5 / allow-non-conformance / no-repeat-headers / annexb / no-aud / no-hrd / info / hash=0 / no-temporal-layers / open-gop / min-keyint=24 / keyint=240 / gop-lookahead=0 / bframes=9 / b-adapt=2 / b-pyramid / bframe-bias=0 / rc-lookahead=60 / lookahead-slices=4 / scenecut=40 / radl=0 / no-intra-refresh / ctu=32 / min-cu-size=8 / rect / amp / max-tu-size=32 / tu-inter-depth=4 / tu-intra-depth=4 / limit-tu=1 / rdoq-level=2 / dynamic-rd=0.00 / no-ssim-rd / signhide / no-tskip / nr-intra=0 / nr-inter=0 / no-constrained-intra / no-strong-intra-smoothing / max-merge=4 / limit-refs=2 / limit-modes / me=3 / subme=7 / merange=57 / temporal-mvp / weightp / weightb / no-analyze-src-pics / deblock=-3:-3 / no-sao / no-sao-non-deblock / rd=6 / no-early-skip / no-rskip / no-fast-intra / no-tskip-fast / no-cu-lossless / no-b-intra / no-splitrd-skip / rdpenalty=0 / psy-rd=2.00 / psy-rdoq=1.00 / no-rd-refine / no-lossless / cbqpoffs=0 / crqpoffs=0 / rc=crf / crf=18.5 / qcomp=0.60 / qpstep=1 / stats-write=0 / stats-read=0 / vbv-maxrate=50000 / vbv-bufsize=50000 / vbv-init=0.9 / crf-max=30.0 / crf-min=0.0 / ipratio=1.40 / pbratio=1.30 / aq-mode=1 / aq-strength=0.90 / no-cutree / zone-count=0 / no-strict-cbr / qg-size=32 / no-rc-grain / qpmax=69 / qpmin=0 / no-const-vbv / sar=1 / overscan=0 / videoformat=5 / range=0 / colorprim=2 / transfer=2 / colormatrix=2 / chromaloc=0 / display-window=0 / max-cll=0,0 / min-luma=0 / max-luma=1023 / log2-max-poc-lsb=8 / vui-timing-info / vui-hrd-info / slices=1 / no-opt-qp-pps / no-opt-ref-list-length-pps / no-multi-pass-opt-rps / scenecut-bias=0.05 / no-opt-cu-delta-qp / no-aq-motion / no-hdr / no-hdr-opt / no-dhdr10-opt / no-idr-recovery-sei / analysis-reuse-level=5 / scale-factor=0 / refine-intra=0 / refine-inter=0 / refine-mv=0 / no-limit-sao / ctu-info=0 / no-lowpass-dct / refine-mv-type=0 / copy-pic=1 / max-ausize-factor=1.0 / no-dynamic-refine / no-single-sei
Default                                  : Yes
Forced                                   : No

Audio #1
ID                                       : 2
Format                                   :
Format/Info                              : Digital Theater Systems
Codec ID                                 : A_DTS
Duration                                 : 1 h 42 min
Bit rate mode                            : Constant
Bit rate                                 : 1 509 kb/s
Channel(s)                               : 6 channels
Channel layout                           : C L R Ls Rs LFE
Sampling rate                            : 48.0 kHz
Frame rate                               : 93.750 FPS (512 SPF)
Bit depth                                : 24 bits
Compression mode                         : Lossy
Stream size                              : 1.08 GiB (16%)
Title                                    : / 5.1 Ch / 1509 kbps / DUB
Language                                 : Ukrainian
Default                                  : Yes
Forced                                   : Yes

Audio #2
ID                                       : 3
Format                                   :
Format/Info                              : Digital Theater Systems
Codec ID                                 : A_DTS
Duration                                 : 1 h 42 min
Bit rate mode                            : Constant
Bit rate                                 : 1 509 kb/s
Channel(s)                               : 6 channels
Channel layout                           : C L R Ls Rs LFE
Sampling rate                            : 48.0 kHz
Frame rate                               : 93.750 FPS (512 SPF)
Bit depth                                : 24 bits
Compression mode                         : Lossy
Stream size                              : 1.08 GiB (16%)
Title                                    : / 5.1 Ch / 1509 kbps / Original
Language                                 : English
Default                                  : No
Forced                                   : No

Audio #3
ID                                       : 4
Format                                   : AC-3
Format/Info                              : Audio Coding 3
Commercial name                          : Dolby Digital
Codec ID                                 : A_AC3
Duration                                 : 1 h 42 min
Bit rate mode                            : Constant
Bit rate                                 : 320 kb/s
Channel(s)                               : 2 channels
Channel layout                           : L R
Sampling rate                            : 48.0 kHz
Frame rate                               : 31.250 FPS (1536 SPF)
Compression mode                         : Lossy
Stream size                              : 234 MiB (3%)
Title                                    : AC-3 / 2.0 Ch / 320 kbps / Original / Commentary by Director Brian Fee, Producer Kevin Reher, Co-Producer Andrea Warren, and Creative Director Jay Ward
Language                                 : English
Service kind                             : Complete Main
Default                                  : No
Forced                                   : No

Text #1
ID                                       : 5
Format                                   : UTF-8
Codec ID                                 : S_TEXT/UTF8
Codec ID/Info                            : UTF-8 Plain Text
Duration                                 : 1 h 30 min
Bit rate                                 : 0 b/s
Count of elements                        : 13
Stream size                              : 666 Bytes (0%)
Title                                    : Forced
Language                                 : Ukrainian
Default                                  : Yes
Forced                                   : Yes

Text #2
ID                                       : 6
Format                                   : UTF-8
Codec ID                                 : S_TEXT/UTF8
Codec ID/Info                            : UTF-8 Plain Text
Duration                                 : 1 h 41 min
Bit rate                                 : 86 b/s
Count of elements                        : 2108
Stream size                              : 64.2 KiB (0%)
Title                                    : Full
Language                                 : English
Default                                  : No
Forced                                   : No

Text #3
ID                                       : 7
Format                                   : UTF-8
Codec ID                                 : S_TEXT/UTF8
Codec ID/Info                            : UTF-8 Plain Text
Duration                                 : 1 h 40 min
Bit rate                                 : 87 b/s
Count of elements                        : 2107
Stream size                              : 64.4 KiB (0%)
Title                                    : SDH
Language                                 : English
Default                                  : No
Forced                                   : No

Text #4
ID                                       : 8
Format                                   : UTF-8
Codec ID                                 : S_TEXT/UTF8
Codec ID/Info                            : UTF-8 Plain Text
Duration                                 : 1 h 40 min
Bit rate                                 : 115 b/s
Count of elements                        : 2107
Stream size                              : 85.4 KiB (0%)
Title                                    : SDH-Colored
Language                                 : English
Default                                  : No
Forced                                   : No

Text #5
ID                                       : 9
Format                                   : UTF-8
Codec ID                                 : S_TEXT/UTF8
Codec ID/Info                            : UTF-8 Plain Text
Duration                                 : 1 h 41 min
Bit rate                                 : 121 b/s
Count of elements                        : 1967
Stream size                              : 90.2 KiB (0%)
Title                                    : Commentary by Director Brian Fee, Producer Kevin Reher, Co-Producer Andrea Warren, and Creative Director Jay Ward
Language                                 : English
Default                                  : No
Forced                                   : No

Text #6
ID                                       : 10
Format                                   : UTF-8
Codec ID                                 : S_TEXT/UTF8
Codec ID/Info                            : UTF-8 Plain Text
Duration                                 : 1 h 41 min
Bit rate                                 : 124 b/s
Count of elements                        : 2002
Stream size                              : 93.2 KiB (0%)
Title                                    : SDH-Commentary by Director Brian Fee, Producer Kevin Reher, Co-Producer Andrea Warren, and Creative Director Jay Ward
Language                                 : English
Default                                  : No
Forced                                   : No

Menu
00:00:00.000                             : en:Champ McQueen
00:04:57.255                             : en:Storm Front
00:10:54.988                             : en:Crash
00:13:59.422                             : en:Wake-up Call
00:18:15.344                             : en:Phone Call
00:21:07.641                             : en:Modern Training
00:34:08.880                             : en:Deal
00:37:52.103                             : en:Beach
00:42:44.812                             : en:Crazy Eight
00:49:44.398                             : en:Cruz's Dream
00:53:57.734                             : en:Facetime
00:58:17.702                             : en:Olive Branch
00:59:27.522                             : en:Smokey
01:02:15.940                             : en:Hud's Win
01:06:35.533                             : en:It's Over
01:08:33.109                             : en:Old School Training
01:15:48.126                             : en:Florida Arrival
01:20:57.852                             : en:Pit Stop
01:29:42.418                             : en:Victory Lane
01:32:17.031                             : en:Epilogue
01:34:00.092                             : en:End Credits
Світлини




Джерело: &
Особиста оцінка: 10 - без зайвих вагань рекомендую всім!


Бронзовий реліз (на рейтинг впливає 75% завантаженого)
 Трекер:    Зареєстрований   

Завантажити / скачати мультфільм українською



відео для новачків



 Зареєстрований:   2020-11-29 15:29
 Розмір:   19.77 GB 
 Оцінка мультфільму:   9.9/10 (Голосів: 34)
   
Kurya 
Свій


З нами з: 08.05.08
Востаннє: 04.03.21
Повідомлень: 73

2020-04-29 16:08  
Гадаю варто вказати, що у другій частині (може й в третій теж, не знаю) російськомовний відеоряд. Перша нормальна.
Kumcheg1995 
Частий відвідувач


З нами з: 05.01.17
Востаннє: 05.03.21
Повідомлень: 42

2020-06-26 17:29  
Kurya
вам він чимось заважає ?

Kurya 
Свій


З нами з: 08.05.08
Востаннє: 04.03.21
Повідомлень: 73

2020-06-26 21:04  
Kumcheg1995
уявіть собі. Наче дивишся фільм з суржиком.

pintg 
Поважний учасник


З нами з: 14.04.16
Востаннє: 04.03.21
Повідомлень: 198

2020-09-09 15:34  
Kurya написано:
Гадаю варто вказати, що у другій частині (може й в інших, не знаю) російськомовний відеоряд.

Дякую, за попередження.

Kumcheg1995 написано:
вам він чимось заважає ?

Може вам "какая разніца", а нам різниця є.

maxnet 
Частий відвідувач


З нами з: 13.01.10
Востаннє: 04.03.21
Повідомлень: 41

2020-10-01 17:02  
В другій частині приблизно після 0:30 починається несинхронність звуку і відео. До кінця мультфільму несинхронність збільшується.
Anonymous 







2020-11-29 15:30  
Виправлено розсинхрон у 2 частині.
Ваш часовий пояс: GMT + 2 Години

Нова тема   Відповісти