Термінал / The Terminal (2004) 1080p H.265 3xUkr/Eng | Sub Eng

Нові коментарі

Нова тема   Відповісти
Автор Повідомлення
Anonymous 







2019-12-10 14:08  
Термінал / The Terminal (2004) 1080p H.265 3xUkr/Eng | Sub Eng

Термінал / The Terminal (2004) 1080p H.265 3xUkr/Eng | Sub Eng


Жанр: драма, комедія
Країна: США
Кінокомпанія: DreamWorks SKG, Amblin Entertainment, Parkes+MacDonald Image Nation
Режисер: Стівен Спілберґ / Steven Spielberg
Актори: Том Генкс / Tom Hanks, Кетрін Зета-Джонс / Catherine Zeta-Jones, Стенлі Тучі / Stanley Tucci, Чі МакБрайд / Chi McBride, Дієґо Люна / Diego Luna, Баррі Шабака Генлі / Barry Shabaka Henley, Кумар Паллана / Kumar Pallana, Зої Салдана / Zoe Saldana, Едді Джонс / Eddie Jones, Джуд Сікколелла / Jude Ciccolella та інші

Сюжет:
Фільм культового режисера Стівена Спілберґа. Віктор Наворскі, мешканець однієї з країн Східної Європи, прибуває до нью-йоркського аеропорту Кеннеді. За час перельоту до Америки в його державі відбувається військовий переворот, і тепер він не може ні повернутися додому, ні потрапити в США. Віктор вимушений залишитися у терміналі аеропорту. Там він починає нове життя – знаходить друзів, наживає ворогів і, навіть, закохується...

Тривалість: 02:08:45
Якість:

Відео:
кодек: H.265 (HEVC)
розмір кадру: 1920 x 1036
бітрейт: 12 568 кб/с
бітова глибина: 10 біт

Увага! Перед завантаженням переконайтесь, що ваш пристрій відтворення (та/або ПЗ) підтримує H.265 (HEVC)

Аудіо # 1:
мова: українська
переклад: двоголосий закадровий
кодек: AC-3 2.0
бітрейт: 192 кб/с

Аудіо # 2:
мова: українська
переклад: двоголосий закадровий
кодек: AC-3 2.0
бітрейт: 192 кб/с

Аудіо # 3:
мова: українська
переклад: багатоголосий закадровий
кодек: AC-3 2.0
бітрейт: 192 кб/с

Аудіо # 4:
мова: англійська
переклад: оригінал
кодек: 5.1
бітрейт: 1510 кб/с

Субтитри # 1-3: (Full, SDH, SDH-Colored)
мова: англійська
тип: програмні (м'які)
формат: *.srt


Info
Код:
General
Unique ID                                : 270899479319048651369358728629609569452 (0xCBCD5787AC22EA7666E28DAA2AA81CAC)
Complete name                            : The Terminal (2004) 1080p H.265 [3xUKR_ENG] [Hurtom].
Format                                   :
Format version                           : Version 4
File size                                : 13.2 GiB
Duration                                 : 2 h 8 min
Overall bit rate                         : 14.7 Mb/s
Movie name                               : Термінал / The Terminal (2004)
Encoded date                             : UTC 2019-12-10 07:42:27
Writing application                      : v20.0.0 ('I Am The Sun') 64-bit
Writing library                          : libebml v1.3.5 + v1.4.8
Cover                                    : Yes
Attachments                              : cover.jpg

Video
ID                                       : 1
Format                                   : HEVC
Format/Info                              : High Efficiency Video Coding
Format profile                           : Main [email protected]@High
Codec ID                                 : V_MPEGH/ISO/HEVC
Duration                                 : 2 h 8 min
Bit rate                                 : 12.6 Mb/s
Width                                    : 1 920 pixels
Height                                   : 1 036 pixels
Display aspect ratio                     : 1.85:1
Frame rate mode                          : Constant
Frame rate                               : 23.976 (24000/1001) FPS
Color space                              : YUV
Chroma subsampling                       : 4:2:0
Bit depth                                : 10 bits
Bits/(Pixel*Frame)                       : 0.264
Stream size                              : 11.3 GiB (86%)
Title                                    : Термінал / The Terminal (2004)
Writing library                          : x265 3.2+5-a3a088a7262f:[Windows][GCC 9.2.0][64 bit] 10bit
Encoding settings                        : cpuid=1111039 / frame-threads=4 / numa-pools=16 / wpp / no-pmode / no-pme / no-psnr / no-ssim / log-level=2 / input-csp=1 / input-res=1920x1036 / interlace=0 / total-frames=185235 / level-idc=41 / high-tier=1 / uhd-bd=0 / ref=5 / no-allow-non-conformance / no-repeat-headers / annexb / no-aud / no-hrd / info / hash=0 / no-temporal-layers / open-gop / min-keyint=23 / keyint=240 / gop-lookahead=0 / bframes=16 / b-adapt=2 / b-pyramid / bframe-bias=0 / rc-lookahead=60 / lookahead-slices=1 / scenecut=40 / radl=0 / no-splice / no-intra-refresh / ctu=32 / min-cu-size=8 / rect / amp / max-tu-size=32 / tu-inter-depth=4 / tu-intra-depth=4 / limit-tu=1 / rdoq-level=2 / dynamic-rd=0.00 / no-ssim-rd / signhide / no-tskip / nr-intra=0 / nr-inter=0 / no-constrained-intra / no-strong-intra-smoothing / max-merge=5 / limit-refs=3 / limit-modes / me=3 / subme=7 / merange=57 / temporal-mvp / no-hme / weightp / weightb / no-analyze-src-pics / deblock=-2:-2 / no-sao / no-sao-non-deblock / rd=6 / selective-sao=0 / no-early-skip / rskip / no-fast-intra / no-tskip-fast / no-cu-lossless / no-b-intra / no-splitrd-skip / rdpenalty=0 / psy-rd=1.75 / psy-rdoq=1.05 / no-rd-refine / no-lossless / cbqpoffs=0 / crqpoffs=0 / rc=crf / crf=19.0 / qcomp=0.70 / qpstep=4 / stats-write=0 / stats-read=0 / vbv-maxrate=50000 / vbv-bufsize=50000 / vbv-init=0.9 / crf-max=0.0 / crf-min=0.0 / ipratio=1.40 / pbratio=1.30 / aq-mode=4 / aq-strength=0.70 / no-cutree / zone-count=0 / no-strict-cbr / qg-size=32 / no-rc-grain / qpmax=69 / qpmin=0 / no-const-vbv / sar=1 / overscan=0 / videoformat=5 / range=0 / colorprim=1 / transfer=1 / colormatrix=1 / chromaloc=0 / display-window=0 / cll=0,0 / min-luma=0 / max-luma=1023 / log2-max-poc-lsb=8 / vui-timing-info / vui-hrd-info / slices=1 / no-opt-qp-pps / no-opt-ref-list-length-pps / no-multi-pass-opt-rps / scenecut-bias=0.05 / no-opt-cu-delta-qp / no-aq-motion / no-hdr / no-hdr-opt / no-dhdr10-opt / no-idr-recovery-sei / analysis-reuse-level=5 / scale-factor=0 / refine-intra=0 / refine-inter=0 / refine-mv=1 / refine-ctu-distortion=0 / no-limit-sao / ctu-info=0 / no-lowpass-dct / refine-analysis-type=0 / copy-pic=1 / max-ausize-factor=1.0 / no-dynamic-refine / no-single-sei / no-hevc-aq / no-svt / no-field / qp-adaptation-range=1.00
Language                                 : English
Default                                  : Yes
Forced                                   : No
Color range                              : Limited
Color primaries                          : BT.709
Transfer characteristics                 : BT.709
Matrix coefficients                      : BT.709

Audio #1
ID                                       : 2
Format                                   : AC-3
Format/Info                              : Audio Coding 3
Commercial name                          : Dolby Digital
Codec ID                                 : A_AC3
Duration                                 : 2 h 8 min
Bit rate mode                            : Constant
Bit rate                                 : 192 kb/s
Channel(s)                               : 2 channels
Channel layout                           : L R
Sampling rate                            : 48.0 kHz
Frame rate                               : 31.250 FPS (1536 SPF)
Bit depth                                : 16 bits
Compression mode                         : Lossy
Stream size                              : 177 MiB (1%)
Title                                    : / 2.0 Ch / 192 kbps / ДЗ / 1+1
Language                                 : Ukrainian
Service kind                             : Complete Main
Default                                  : Yes
Forced                                   : Yes

Audio #2
ID                                       : 3
Format                                   : AC-3
Format/Info                              : Audio Coding 3
Commercial name                          : Dolby Digital
Codec ID                                 : A_AC3
Duration                                 : 2 h 8 min
Bit rate mode                            : Constant
Bit rate                                 : 192 kb/s
Channel(s)                               : 2 channels
Channel layout                           : L R
Sampling rate                            : 48.0 kHz
Frame rate                               : 31.250 FPS (1536 SPF)
Bit depth                                : 16 bits
Compression mode                         : Lossy
Stream size                              : 177 MiB (1%)
Title                                    : / 2.0 Ch / 192 kbps / ДЗ / Novy Kanal
Language                                 : Ukrainian
Service kind                             : Complete Main
Default                                  : No
Forced                                   : No

Audio #3
ID                                       : 4
Format                                   : AC-3
Format/Info                              : Audio Coding 3
Commercial name                          : Dolby Digital
Codec ID                                 : A_AC3
Duration                                 : 2 h 8 min
Bit rate mode                            : Constant
Bit rate                                 : 192 kb/s
Channel(s)                               : 2 channels
Channel layout                           : L R
Sampling rate                            : 48.0 kHz
Frame rate                               : 31.250 FPS (1536 SPF)
Bit depth                                : 16 bits
Compression mode                         : Lossy
Stream size                              : 177 MiB (1%)
Title                                    : / 2.0 Ch / 192 kbps / БЗ / Inter
Language                                 : Ukrainian
Service kind                             : Complete Main
Default                                  : No
Forced                                   : No

Audio #4
ID                                       : 5
Format                                   :
Format/Info                              : Digital Theater Systems
Codec ID                                 : A_DTS
Duration                                 : 2 h 8 min
Bit rate mode                            : Constant
Bit rate                                 : 1 509 kb/s
Channel(s)                               : 6 channels
Channel layout                           : C L R Ls Rs LFE
Sampling rate                            : 48.0 kHz
Frame rate                               : 93.750 FPS (512 SPF)
Bit depth                                : 24 bits
Compression mode                         : Lossy
Stream size                              : 1.36 GiB (10%)
Title                                    : / 5.1 Ch / 1509 kbps / Original
Language                                 : English
Default                                  : No
Forced                                   : No

Text #1
ID                                       : 6
Format                                   : UTF-8
Codec ID                                 : S_TEXT/UTF8
Codec ID/Info                            : UTF-8 Plain Text
Duration                                 : 2 h 0 min
Bit rate                                 : 54 b/s
Count of elements                        : 1368
Stream size                              : 47.7 KiB (0%)
Title                                    : Full
Language                                 : English
Default                                  : No
Forced                                   : No

Text #2
ID                                       : 7
Format                                   : UTF-8
Codec ID                                 : S_TEXT/UTF8
Codec ID/Info                            : UTF-8 Plain Text
Duration                                 : 2 h 0 min
Bit rate                                 : 56 b/s
Count of elements                        : 1472
Stream size                              : 50.2 KiB (0%)
Title                                    : SDH
Language                                 : English
Default                                  : No
Forced                                   : No

Text #3
ID                                       : 8
Format                                   : UTF-8
Codec ID                                 : S_TEXT/UTF8
Codec ID/Info                            : UTF-8 Plain Text
Duration                                 : 2 h 0 min
Bit rate                                 : 63 b/s
Count of elements                        : 1472
Stream size                              : 55.8 KiB (0%)
Title                                    : SDH-Colored
Language                                 : English
Default                                  : No
Forced                                   : No

Menu
00:00:00.000                             : en:Main Title
00:03:15.068                             : en:Crack in the System
00:08:59.288                             : en:America Closed
00:14:02.049                             : en:Do You Have an Appointment?
00:15:27.259                             : en:Gate 67
00:18:34.445                             : en:Acting Field Commissioner
00:20:25.641                             : en:Unacceptable
00:23:04.257                             : en:Unhooking the Fish
00:27:40.324                             : en:Sensible Heels
00:29:41.863                             : en:The Carts
00:32:28.571                             : en:50/50
00:35:06.187                             : en:You Feed Me, I'll Feed You
00:41:22.146                             : en:Crowded
00:47:21.295                             : en:Observations
00:52:10.168                             : en:The Position Has Been Filled
00:57:34.075                             : en:After Hours
01:00:36.341                             : en:Rewriting History
01:05:59.997                             : en:The Inspection
01:16:04.560                             : en:If I Stay, You Stay
01:18:18.652                             : en:The Dinner Appointment
01:29:05.673                             : en:Tokens of Love
01:32:53.859                             : en:Why Viktor Navorski?
01:35:16.001                             : en:Keeping Promises
01:42:00.113                             : en:The War Is Over
01:48:59.491                             : en:Family
01:51:01.071                             : en:Viktor's Leaving!
01:57:51.939                             : en:161 Lexington
02:01:33.703                             : en:Final Titles
02:08:45.592                             : en:The End
Світлини




Джерело: &
Особиста оцінка: 0 - не дивився


Срібний реліз (на рейтинг впливає 50% завантаженого)
 Трекер:    Зареєстрований   

Завантажити / скачати фільм українською



відео для новачків



 Зареєстрований:   2019-12-10 14:08
 Розмір:   13.18 GB 
 Оцінка фільму:   9.9/10 (Голосів: 8)
   
Інші релізи
   Термінал / The Terminal (2004) 3xUkr/Eng taraskill1  11 / 0   2.71 GB   2020-04-01 15:29 
   Термінал / The Terminal (2004) AVC 3xUkr/Eng | Sub Eng staf777  9 / 0   2.54 GB   2019-12-16 23:04 
   Термінал / The Terminal (2004) 720p 2xUkr/Eng | Sub Eng igor911  4 / 0   15.29 GB   2015-04-03 07:25 
   Термінал / The Terminal (2004) 1080p 2xUkr/Eng | Sub Eng igor911  4 / 0   21.48 GB   2015-03-28 10:23 
dr-jazz 
Новенький


З нами з: 22.09.10
Востаннє: 28.09.20
Повідомлень: 17

2019-12-15 19:47  
Гарне кіно. Том Генкс на висоті
Anonymous 







2019-12-20 01:04  
Фільм просто чудовий. Рекомендую до перегляду!
olimpian1 
VIP


З нами з: 19.10.13
Востаннє: 24.09.20
Повідомлень: 290

2020-03-23 10:17  
Не бачив, а всі хвалять)) карантин дає можливість передивитись купу фільмів прикольних, які пропустив свого часу)
Ваш часовий пояс: GMT + 2 Години

Нова тема   Відповісти