Нарешті вдома / Home (2015) 1080p H.265 Ukr/Eng | Sub Ukr/Eng

Нові коментарі

Нова тема   Відповісти
Автор Повідомлення
Anonymous 







2019-12-10 12:46  
Нарешті вдома / Home (2015) 1080p H.265 Ukr/Eng | Sub Ukr/Eng

Нарешті вдома / Home (2015) 1080p H.265 Ukr/Eng | Sub Ukr/Eng


Жанр: анімація, пригодницький, комедія, сімейний, фантастика
Країна: США
Кінокомпанія: DreamWorks Animation
Режисер: Тім Джонсон / Tim Johnson
Актори: Джим Парсонс / Jim Parsons, Ріанна / Rihanna, Дженніфер Лопес / Jennifer Lopez, Метт Джонс Matt Jones, Стів Мартін / Steve Martin, Дерек Бланкеншіп / Derek Blankenship, Найджел В. Тірні / Nigel W. Tierney та інші

Сюжет:
Планету Земля загарбали зухвалі Буви – чужинська раса, яка шукає для себе нового притулку. Усіх людей терміново ізолюють, Буви ж гуртом беруться переоблаштовувати планету. Але одній винахідливій дівчинці Тіп вдається уникнути полону, і вона стає випадковою спільницею Бува-вигнанця на ім’я Ох. Розуміючи, що на карту поставлено значно більше ніж міжгалактичні відносини, двійко втікачів рушають у головну подорож свого життя.

Тривалість: 01:33:48
Якість:

Відео:
кодек: H.265 (HEVC)
розмір кадру: 1920 x 1040
бітрейт: 6 597 кб/с
бітова глибина: 10 біт

Увага! Перед завантаженням переконайтесь, що ваш пристрій відтворення (та/або ПЗ) підтримує H.265 (HEVC)

Аудіо # 1:
мова: українська
переклад: професійний дубльований
кодек: AC-3 5.1
бітрейт: 448 кб/с

Аудіо # 2:
мова: англійська
переклад: оригінал
кодек: 5.1
бітрейт: 1510 кб/с

Субтитри # 1: (Full)
мова: українська
тип: програмні (м'які)
формат: *.srt

Субтитри # 2: (Full)
мова: англійська
тип: програмні (м'які)
формат: *.srt


Info
Код:
General
Unique ID                                : 331897625546053050541793543355270423931 (0xF9B12855436F9195308AB581CB57E57B)
Complete name                            : Home (2015) 1080p H.265 [UKR_ENG] [Hurtom].
Format                                   :
Format version                           : Version 4
File size                                : 5.61 GiB
Duration                                 : 1 h 33 min
Overall bit rate                         : 8 556 kb/s
Movie name                               : Нарешті вдома / Home (2015)
Encoded date                             : UTC 2019-12-10 07:37:55
Writing application                      : v20.0.0 ('I Am The Sun') 64-bit
Writing library                          : libebml v1.3.5 + v1.4.8
Cover                                    : Yes
Attachments                              : Cover.jpg

Video
ID                                       : 1
Format                                   : HEVC
Format/Info                              : High Efficiency Video Coding
Format profile                           : Main [email protected]@High
Codec ID                                 : V_MPEGH/ISO/HEVC
Duration                                 : 1 h 33 min
Bit rate                                 : 6 596 kb/s
Width                                    : 1 920 pixels
Height                                   : 1 040 pixels
Display aspect ratio                     : 1.85:1
Frame rate mode                          : Constant
Frame rate                               : 23.976 (24000/1001) FPS
Color space                              : YUV
Chroma subsampling                       : 4:2:0
Bit depth                                : 10 bits
Bits/(Pixel*Frame)                       : 0.138
Stream size                              : 4.32 GiB (77%)
Title                                    : Нарешті вдома / Home (2015)
Writing library                          : x265 3.2.1+1-b5c86a64bbbe:[Windows][MSVC 1923][64 bit] 10bit
Encoding settings                        : cpuid=1111039 / frame-threads=3 / numa-pools=12 / wpp / no-pmode / no-pme / no-psnr / no-ssim / log-level=2 / input-csp=1 / input-res=1920x1040 / interlace=0 / total-frames=134940 / level-idc=41 / high-tier=1 / uhd-bd=0 / ref=5 / no-allow-non-conformance / no-repeat-headers / annexb / no-aud / no-hrd / info / hash=0 / no-temporal-layers / open-gop / min-keyint=23 / keyint=240 / gop-lookahead=0 / bframes=12 / b-adapt=2 / b-pyramid / bframe-bias=0 / rc-lookahead=60 / lookahead-slices=4 / scenecut=40 / radl=0 / no-splice / no-intra-refresh / ctu=32 / min-cu-size=8 / rect / amp / max-tu-size=32 / tu-inter-depth=4 / tu-intra-depth=4 / limit-tu=1 / rdoq-level=2 / dynamic-rd=0.00 / no-ssim-rd / signhide / no-tskip / nr-intra=0 / nr-inter=0 / no-constrained-intra / no-strong-intra-smoothing / max-merge=4 / limit-refs=2 / limit-modes / me=3 / subme=7 / merange=57 / temporal-mvp / no-hme / weightp / weightb / no-analyze-src-pics / deblock=-3:-3 / no-sao / no-sao-non-deblock / rd=6 / selective-sao=0 / no-early-skip / no-rskip / no-fast-intra / no-tskip-fast / no-cu-lossless / no-b-intra / no-splitrd-skip / rdpenalty=0 / psy-rd=2.00 / psy-rdoq=1.00 / no-rd-refine / no-lossless / cbqpoffs=0 / crqpoffs=0 / rc=crf / crf=20.0 / qcomp=0.65 / qpstep=4 / stats-write=0 / stats-read=0 / vbv-maxrate=50000 / vbv-bufsize=50000 / vbv-init=0.9 / crf-max=0.0 / crf-min=0.0 / ipratio=1.40 / pbratio=1.30 / aq-mode=1 / aq-strength=1.00 / no-cutree / zone-count=0 / no-strict-cbr / qg-size=32 / no-rc-grain / qpmax=69 / qpmin=0 / no-const-vbv / sar=1 / overscan=0 / videoformat=5 / range=0 / colorprim=1 / transfer=1 / colormatrix=1 / chromaloc=0 / display-window=0 / cll=0,0 / min-luma=0 / max-luma=1023 / log2-max-poc-lsb=8 / vui-timing-info / vui-hrd-info / slices=1 / no-opt-qp-pps / no-opt-ref-list-length-pps / no-multi-pass-opt-rps / scenecut-bias=0.05 / no-opt-cu-delta-qp / no-aq-motion / no-hdr / no-hdr-opt / no-dhdr10-opt / no-idr-recovery-sei / analysis-reuse-level=5 / scale-factor=0 / refine-intra=0 / refine-inter=0 / refine-mv=1 / refine-ctu-distortion=0 / no-limit-sao / ctu-info=0 / no-lowpass-dct / refine-analysis-type=0 / copy-pic=1 / max-ausize-factor=1.0 / no-dynamic-refine / no-single-sei / no-hevc-aq / no-svt / no-field / qp-adaptation-range=1.00
Default                                  : Yes
Forced                                   : No
Color range                              : Limited
Color primaries                          : BT.709
Transfer characteristics                 : BT.709
Matrix coefficients                      : BT.709

Audio #1
ID                                       : 2
Format                                   : AC-3
Format/Info                              : Audio Coding 3
Commercial name                          : Dolby Digital
Codec ID                                 : A_AC3
Duration                                 : 1 h 33 min
Bit rate mode                            : Constant
Bit rate                                 : 448 kb/s
Channel(s)                               : 6 channels
Channel layout                           : L R C LFE Ls Rs
Sampling rate                            : 48.0 kHz
Frame rate                               : 31.250 FPS (1536 SPF)
Bit depth                                : 16 bits
Compression mode                         : Lossy
Stream size                              : 301 MiB (5%)
Title                                    : / 5.1 Ch / 448 kbps / ПД / Blu-Ray
Language                                 : Ukrainian
Service kind                             : Complete Main
Default                                  : Yes
Forced                                   : Yes

Audio #2
ID                                       : 3
Format                                   : ES
Format/Info                              : Digital Theater Systems
Commercial name                          : -ES Matrix
Codec ID                                 : A_DTS
Duration                                 : 1 h 33 min
Bit rate mode                            : Constant
Bit rate                                 : 1 509 kb/s
Channel(s)                               : 6 channels
Channel(s)_Original                      : 7 channels
ChannelLayout_Original                   : C L R Ls Rs Cs LFE
Sampling rate                            : 48.0 kHz
Frame rate                               : 93.750 FPS (512 SPF)
Bit depth                                : 24 bits
Compression mode                         : Lossy
Stream size                              : 1 012 MiB (18%)
Title                                    : -ES / 5.1 Ch / 1509 kbps / Original
Language                                 : English
Default                                  : No
Forced                                   : No

Text #1
ID                                       : 4
Format                                   : UTF-8
Codec ID                                 : S_TEXT/UTF8
Codec ID/Info                            : UTF-8 Plain Text
Duration                                 : 1 h 32 min
Bit rate                                 : 79 b/s
Count of elements                        : 1172
Stream size                              : 54.4 KiB (0%)
Title                                    : Full
Language                                 : Ukrainian
Default                                  : Yes
Forced                                   : No

Text #2
ID                                       : 5
Format                                   : UTF-8
Codec ID                                 : S_TEXT/UTF8
Codec ID/Info                            : UTF-8 Plain Text
Duration                                 : 1 h 23 min
Bit rate                                 : 50 b/s
Count of elements                        : 1139
Stream size                              : 30.6 KiB (0%)
Title                                    : Full
Language                                 : English
Default                                  : No
Forced                                   : No

Menu
00:00:00.000                             : en:00:00:00.000
00:03:43.723                             : en:00:03:43.723
00:07:28.406                             : en:00:07:28.406
00:11:19.470                             : en:00:11:19.470
00:14:26.949                             : en:00:14:26.949
00:17:58.952                             : en:00:17:58.952
00:21:05.639                             : en:00:21:05.639
00:25:18.850                             : en:00:25:18.850
00:29:07.078                             : en:00:29:07.078
00:33:14.617                             : en:00:33:14.617
00:38:58.961                             : en:00:38:58.961
00:41:31.155                             : en:00:41:31.155
00:44:27.539                             : en:00:44:27.539
00:46:50.933                             : en:00:46:50.933
00:51:34.758                             : en:00:51:34.758
00:56:25.924                             : en:00:56:25.924
01:00:43.681                             : en:01:00:43.681
01:03:53.496                             : en:01:03:53.496
01:06:57.722                             : en:01:06:57.722
01:09:44.180                             : en:01:09:44.180
01:13:55.764                             : en:01:13:55.764
01:18:11.770                             : en:01:18:11.770
01:21:55.368                             : en:01:21:55.368
01:23:56.031                             : en:01:23:56.031
Світлини




Джерело: &
Особиста оцінка: 0 - не дивився


 Трекер:    Зареєстрований   

Завантажити / скачати мультфільм українською



відео для новачків



 Зареєстрований:   2019-12-10 12:46
 Розмір:   5.61 GB 
 Оцінка мультфільму:   9.8/10 (Голосів: 14)
   
Інші релізи
   Хто в домі тато / Daddy's Home (2015) Remux 1080p Ukr/Eng | Sub Eng Devil_my_cry  1 / 0   22.61 GB   2018-08-04 19:41 
   Хто в домі тато / Daddy's Home (2015) AngryBirdsUA  5 / 0   1.45 GB   2017-03-08 08:38 
   Хто в домі тато / Daddy's Home (2015) 720p Ukr/Eng | Sub Eng 11FrYkT  3 / 0   4.33 GB   2017-03-08 08:18 
   Хто в домі тато / Daddy's Home (2015) 1080p Ukr/Eng | Sub Eng JustAMan  6 / 0   8.67 GB   2016-04-14 02:45 
   Нарешті вдома / Home (2015) [MP4, 640x] apvAltisimo  0 / 0   813 MB   2015-08-19 13:24 
   Нарешті вдома / Home (2015) 1080p 3D [Half OverUnder] Ukr/Eng | Sub Ukr/Eng Premer_Joker  3 / 0   8.42 GB   2015-07-10 07:15 
   Нарешті вдома / Home (2015) 1080p Ukr/Eng | Sub Ukr/Eng 11FrYkT  9 / 0   6.3 GB   2015-07-05 20:02 
   Нарештi вдома / Home (2015) 720p Ukr/Eng | Sub Ukr/Eng 11FrYkT  6 / 0   3.31 GB   2015-07-05 19:58 
   Нарешті вдома / Home (2015) patriot2305  29 / 1   1.46 GB   2015-07-05 16:55 
   Нарешті вдома / Home (2015) AVC Ukr/Eng | Sub Ukr/Eng Gelios  5 / 0   1.96 GB   2015-07-05 13:25 
kovpack 
Поважний учасник


З нами з: 10.12.07
Востаннє: 02.03.21
Повідомлень: 233

2019-12-11 00:38  
було б непогано ще англійську доріжку в :(
Ваш часовий пояс: GMT + 2 Години

Нова тема   Відповісти