До зірок / Ad Astra (2019) UHD 1080p H.265 Ukr/Eng | Sub Ukr/Eng

Нові коментарі

Нова тема   Відповісти
Автор Повідомлення
Anonymous 







2019-12-10 13:37  
До зірок / Ad Astra (2019) UHD 1080p H.265 Ukr/Eng | Sub Ukr/Eng

До зірок / Ad Astra (2019) UHD 1080p H.265 Ukr/Eng | Sub Ukr/Eng


Жанр: драма, трилер, фантастика
Країна: США, Китай, Бразилія
Кінокомпанія: 20th Century Fox, New Regency Pictures, Plan B Entertainment
Режисер: Джеймс Ґрей
Актори: Бред Пітт, Томмі Лі Джонс, Рут Негг, Дональд Сазерленд, Кімберлі Еліз, Лорен Дін, Донні Кешаварц, Шон Блейкмор, Боббі Ніш, Ліза Гей Хемілтон

Сюжет:
Батько інженера армійського корпусу Сполучених Штатів Америки Роя МакБрайда двадцять років тому вирушив на посаді капітана корабля з секретною місією на пошуки позаземної цивілізації. Через шістнадцять років після початку експедиції корабель зник. Крім того, стало відомо, що чоловік експериментував із матеріалом, який може поставити під загрозу існування всього живого у Всесвіті. Настав час самого Роя відправитися на пошуки батька, а також, щоб розібратися з цими експериментами. Ця подорож відкриє багато секретів, які по-новому покажуть людське існування та наше місце в космосі. Якщо його батько шукав нові цивілізації, то сам Рой повинен врятувати нашу.

Тривалість: 02:03:02
Якість:

Відео:
кодек: H.265 (HEVC)
розмір кадру: 1920 x 804
бітрейт: 13 576 кб/с
бітова глибина: 10 біт

Увага! Перед завантаженням переконайтесь, що ваш пристрій відтворення (та/або ПЗ) підтримує H.265 (HEVC)

Аудіо # 1:
мова: українська
переклад: професійний дубльований
кодек: AC-3 5.1
бітрейт: 384 кб/с

Аудіо # 2:
мова: англійська
переклад: оригінал
кодек: 5.1
бітрейт: 1510 кб/с

Субтитри # 1-2: (Forced, Full)
мова: українська
тип: програмні (м'які)
формат: *.srt

Субтитри # 3-4: (Full, SDH)
мова: англійська
тип: програмні (м'які)
формат: *.srt


Info
Код:
General
Unique ID                                : 91528219999541447938809570621782501256 (0x44DBB1A7B6B4F92B4B205D8356B82788)
Complete name                            : Ad Astra (2019) UHD 1080p H.265 [UKR_ENG] [Hurtom].
Format                                   :
Format version                           : Version 4
File size                                : 13.3 GiB
Duration                                 : 2 h 3 min
Overall bit rate                         : 15.5 Mb/s
Movie name                               : До зірок / Ad Astra (2019)
Encoded date                             : UTC 2020-05-08 20:40:19
Writing application                      : v20.0.0 ('I Am The Sun') 64-bit
Writing library                          : libebml v1.3.5 + v1.4.8
Cover                                    : Yes
Attachments                              : cover.jpg

Video
ID                                       : 1
Format                                   : HEVC
Format/Info                              : High Efficiency Video Coding
Format profile                           : Main [email protected]@High
Codec ID                                 : V_MPEGH/ISO/HEVC
Duration                                 : 2 h 3 min
Bit rate                                 : 13.6 Mb/s
Width                                    : 1 920 pixels
Height                                   : 804 pixels
Display aspect ratio                     : 2.40:1
Frame rate mode                          : Constant
Frame rate                               : 23.976 (24000/1001) FPS
Color space                              : YUV
Chroma subsampling                       : 4:2:0
Bit depth                                : 10 bits
Bits/(Pixel*Frame)                       : 0.367
Stream size                              : 11.7 GiB (88%)
Title                                    : До зірок / Ad Astra (2019)
Writing library                          : x265 3.2+5-354901970679:[Windows][clang 8.0.1][64 bit] 10bit
Encoding settings                        : cpuid=1049583 / frame-threads=5 / numa-pools=4 / wpp / no-pmode / no-pme / no-psnr / no-ssim / log-level=3 / input-csp=1 / input-res=1920x804 / interlace=0 / total-frames=0 / level-idc=41 / high-tier=1 / uhd-bd=0 / ref=5 / allow-non-conformance / no-repeat-headers / annexb / no-aud / no-hrd / info / hash=0 / no-temporal-layers / open-gop / min-keyint=24 / keyint=240 / gop-lookahead=0 / bframes=16 / b-adapt=2 / b-pyramid / bframe-bias=0 / rc-lookahead=40 / lookahead-slices=5 / scenecut=40 / radl=0 / no-splice / no-intra-refresh / ctu=32 / min-cu-size=8 / no-rect / no-amp / max-tu-size=32 / tu-inter-depth=4 / tu-intra-depth=4 / limit-tu=1 / rdoq-level=1 / dynamic-rd=0.00 / no-ssim-rd / signhide / no-tskip / nr-intra=0 / nr-inter=0 / no-constrained-intra / no-strong-intra-smoothing / max-merge=5 / limit-refs=1 / no-limit-modes / me=3 / subme=7 / merange=57 / temporal-mvp / no-frame-dup / no-hme / weightp / no-weightb / no-analyze-src-pics / deblock=-3:-3 / no-sao / no-sao-non-deblock / rd=3 / selective-sao=0 / early-skip / no-rskip / no-fast-intra / no-tskip-fast / no-cu-lossless / b-intra / no-splitrd-skip / rdpenalty=0 / psy-rd=2.00 / psy-rdoq=1.00 / no-rd-refine / no-lossless / cbqpoffs=0 / crqpoffs=0 / rc=crf / crf=20.0 / qcomp=0.60 / qpstep=4 / stats-write=0 / stats-read=0 / vbv-maxrate=50000 / vbv-bufsize=50000 / vbv-init=0.9 / crf-max=0.0 / crf-min=0.0 / ipratio=1.40 / pbratio=1.30 / aq-mode=3 / aq-strength=1.00 / no-cutree / zone-count=0 / no-strict-cbr / qg-size=32 / no-rc-grain / qpmax=69 / qpmin=0 / no-const-vbv / sar=1 / overscan=0 / videoformat=5 / range=0 / colorprim=1 / transfer=1 / colormatrix=1 / chromaloc=0 / display-window=0 / cll=0,0 / min-luma=0 / max-luma=1023 / log2-max-poc-lsb=8 / vui-timing-info / vui-hrd-info / slices=1 / no-opt-qp-pps / no-opt-ref-list-length-pps / no-multi-pass-opt-rps / scenecut-bias=0.05 / no-opt-cu-delta-qp / no-aq-motion / no-hdr / no-hdr-opt / no-dhdr10-opt / no-idr-recovery-sei / analysis-reuse-level=5 / scale-factor=0 / refine-intra=0 / refine-inter=0 / refine-mv=1 / refine-ctu-distortion=0 / no-limit-sao / ctu-info=0 / no-lowpass-dct / refine-analysis-type=0 / copy-pic=1 / max-ausize-factor=1.0 / no-dynamic-refine / no-single-sei / no-hevc-aq / no-svt / no-field / qp-adaptation-range=1.00
Language                                 : English
Default                                  : Yes
Forced                                   : No
Color range                              : Limited
Color primaries                          : BT.709
Transfer characteristics                 : BT.709
Matrix coefficients                      : BT.709

Audio #1
ID                                       : 2
Format                                   : AC-3
Format/Info                              : Audio Coding 3
Commercial name                          : Dolby Digital
Codec ID                                 : A_AC3
Duration                                 : 2 h 3 min
Bit rate mode                            : Constant
Bit rate                                 : 384 kb/s
Channel(s)                               : 6 channels
Channel layout                           : L R C LFE Ls Rs
Sampling rate                            : 48.0 kHz
Frame rate                               : 31.250 FPS (1536 SPF)
Compression mode                         : Lossy
Stream size                              : 338 MiB (2%)
Title                                    : / 5.1 Ch / 384 kbps / БЗ / iTunes
Language                                 : Ukrainian
Service kind                             : Complete Main
Default                                  : Yes
Forced                                   : Yes

Audio #2
ID                                       : 3
Format                                   :
Format/Info                              : Digital Theater Systems
Codec ID                                 : A_DTS
Duration                                 : 2 h 3 min
Bit rate mode                            : Constant
Bit rate                                 : 1 509 kb/s
Channel(s)                               : 6 channels
Channel layout                           : C L R Ls Rs LFE
Sampling rate                            : 48.0 kHz
Frame rate                               : 93.750 FPS (512 SPF)
Bit depth                                : 24 bits
Compression mode                         : Lossy
Stream size                              : 1.30 GiB (10%)
Title                                    : / 5.1 Ch / 1509 kbps / Original
Language                                 : English
Default                                  : No
Forced                                   : No

Text #1
ID                                       : 4
Format                                   : UTF-8
Codec ID                                 : S_TEXT/UTF8
Codec ID/Info                            : UTF-8 Plain Text
Duration                                 : 2 h 2 min
Bit rate                                 : 1 b/s
Count of elements                        : 27
Stream size                              : 1.17 KiB (0%)
Title                                    : Forced
Language                                 : Ukrainian
Default                                  : Yes
Forced                                   : Yes

Text #2
ID                                       : 5
Format                                   : UTF-8
Codec ID                                 : S_TEXT/UTF8
Codec ID/Info                            : UTF-8 Plain Text
Duration                                 : 2 h 2 min
Bit rate                                 : 68 b/s
Count of elements                        : 1082
Stream size                              : 61.3 KiB (0%)
Title                                    : Full
Language                                 : Ukrainian
Default                                  : No
Forced                                   : No

Text #3
ID                                       : 6
Format                                   : UTF-8
Codec ID                                 : S_TEXT/UTF8
Codec ID/Info                            : UTF-8 Plain Text
Duration                                 : 2 h 0 min
Bit rate                                 : 43 b/s
Count of elements                        : 1261
Stream size                              : 38.7 KiB (0%)
Title                                    : Full
Language                                 : English
Default                                  : No
Forced                                   : No

Text #4
ID                                       : 7
Format                                   : UTF-8
Codec ID                                 : S_TEXT/UTF8
Codec ID/Info                            : UTF-8 Plain Text
Duration                                 : 1 h 50 min
Bit rate                                 : 50 b/s
Count of elements                        : 1389
Stream size                              : 41.1 KiB (0%)
Title                                    : SDH
Language                                 : English
Default                                  : No
Forced                                   : No

Menu
00:00:00.000                             : en:Chapter 01
00:04:22.679                             : en:Chapter 02
00:08:48.695                             : en:Chapter 03
00:16:25.776                             : en:Chapter 04
00:22:33.811                             : en:Chapter 05
00:30:08.515                             : en:Chapter 06
00:35:08.273                             : en:Chapter 07
00:40:33.348                             : en:Chapter 08
00:44:45.391                             : en:Chapter 09
00:48:56.809                             : en:Chapter 10
00:53:51.812                             : en:Chapter 11
00:56:43.775                             : en:Chapter 12
01:01:31.897                             : en:Chapter 13
01:07:23.873                             : en:Chapter 14
01:12:12.411                             : en:Chapter 15
01:16:59.114                             : en:Chapter 16
01:21:35.182                             : en:Chapter 17
01:24:42.661                             : en:Chapter 18
01:31:16.554                             : en:Chapter 19
01:36:27.031                             : en:Chapter 20
01:40:59.595                             : en:Chapter 21
01:46:26.589                             : en:Chapter 22
01:50:00.052                             : en:Chapter 23
01:53:17.791                             : en:Chapter 24
Світлини




Джерело: &
Особиста оцінка: 10 - без зайвих вагань рекомендую всім!


 Трекер:    Зареєстрований   

Завантажити / скачати фільм українською



відео для новачків



 Зареєстрований:   2020-05-08 23:58
 Розмір:   13.3 GB 
 Оцінка фільму:   8.7/10 (Голосів: 21)
   
Інші релізи
   До зірок / Ad Astra (2019) Remux 1080p Ukr/Eng | Sub Ukr/Eng antik_2008  0 / 0   27.43 GB   2020-05-09 12:46 
   До зірок / Ad Astra (2019) UHD Remux 4K 2160p HDR H.265 Ukr/Eng | Sub Ukr/Eng antik_2008  11 / 0   45.2 GB   2020-05-09 10:39 
   До зірок / Ad Astra (2019) Ukr/Eng | Sub Ukr/Eng antik_2008  7 / 0   2.1 GB   2020-05-08 23:52 
   До зірок / Ad Astra (2019) 1080p Ukr/Eng | Sub Ukr/Eng antik_2008  7 / 0   10.89 GB   2020-05-08 22:42 
   До зірок / Ad Astra (2019) 720p Ukr/Eng | Sub Ukr/Eng 11FrYkT  4 / 0   4.6 GB   2020-05-08 21:54 
   До зірок / Ad Astra (2019) AVC Ukr/Eng | Sub Ukr/Eng 11FrYkT  1 / 0   2.1 GB   2020-05-08 21:45 
   До зірок / Ad Astra (2019) 1080p Ukr/Eng | Sub Ukr/Eng igor911  21 / 0   7.95 GB   2019-12-04 11:21 
vash1 
VIP


З нами з: 16.03.16
Востаннє: 21.10.20
Повідомлень: 267

2019-12-10 21:50  
Дякую!

Зазвичай в UHD ріпах "вимиті" кольори через конвертацію HDR в SDR

І замість діапазону 0-255 отримуєм 16-240 тобто яскраво-білого і темно-чорного нема. І ріпи виходять "бляклі" і менш контрастні.

Спробую порівняти з BD ріпом

Ще раз дякую!

--

порівняв з BD ремуксом в SDR.

тут з ріпом усе гаразд. сріни нижче (зроблені не плеєром, а "напряму", бо vlc "висвітлює" конвертоване hdr-відео:












Anonymous 







2019-12-10 22:19  
vash1
Будь ласка)
Порівняйте, і якщо можна відпишіться тут. Теж цікаво)

vash1 
VIP


З нами з: 16.03.16
Востаннє: 21.10.20
Повідомлень: 267

2019-12-13 19:58  
Anonymous порівняв. додав скріни вище. тут з ріпом усе супер!
Anonymous 







2019-12-13 20:12  
vash1
Дякую за порівняння. Очікував на зовсім інший результат. Приємно здивований =)

roalad 
VIP


З нами з: 22.06.12
Востаннє: 21.10.20
Повідомлень: 361

2020-09-06 11:23  
Anonymous
UHD лишнє в назві релізу це не 4К ріп.

Ваш часовий пояс: GMT + 2 Години

Нова тема   Відповісти