У пошуках пригод / The Quest (1996) Remux 1080p 3xUkr/Eng | Sub Eng

Нові коментарі

Нова тема   Відповісти
Автор Повідомлення
MakRA 
VIP


З нами з: 11.11.18
Востаннє: 28.09.20
Повідомлень: 1120

2019-12-10 08:21  
У пошуках пригод / The Quest (1996) Remux 1080p 3xUkr/Eng | Sub Eng



Жанр: екшн, пригодницький, драма
Країна: США



Кінокомпанія: MDP Worldwide, Selima Films AVV, Signature Pictures
Режисер: Жан-Клод Ван Дамм [Jean-Claude Van Damme]
Актори: Жан-Клод Ван Дамм [Jean-Claude Van Damme], Роджер Мур [Roger Moore], Джеймс Ремар [James Remar], Дженет Ганн [Janet Gunn], Джек МакГі [Jack McGee], Луїс Менділор [ Louis Mandylor], Акі Алеонг [Aki Aleong]

Сюжет:
Кріс Дюбуа, вуличний злочинець, відправляється в подорож у пошуках свого минулого й майбутнього. Його шлях проходить через найекзотичніші країни й мальовничі куточки земної кулі, від підворіть Нью-Йорка до загадкового чарівного тибетського Загубленого Міста, яке стає для нього випробуванням на честь і мужність у прадавніх міфічних змаганнях Ган-Генг - боях до переможного кінця кращих бійців вз усього світу за володіння жаданим призом - Золотим Драконом.

Цікаве про фільм та зйомки:

-Фільм став режисерським дебютом Жана-Клода Ван Дамма.
-У турнірі беруть участь представники наступних країн: США, Радянський Союз, Сіам, Туреччина, Шотландія, Німеччина, Греція, Іспанія, Франція, Бразилія, Японія, Монголія, Корея, Китай, а також Африки і острова Окінава. Цікаво, що Японія, Окінава і Корея, у 1920-х роках, по суті, були однією країною, але позначені як три різні держави; а численні держави і колонії Африки представлені одним бійцем.
-Бій, в якому сумоїст, який здавався майже невразливим, програє жорстоким нокаутом монголові, практично повністю повторює сцену перемоги героя Ван Дамма над небезпечним суперником з Японії у фільмі «Кривавий спорт» (1988).
-Дуже своєрідно виглядають представники Радянського Союзу на турнірі. Вони одягнені в дивні наряди з елементами козацької форми.
-Коли Роджер Мур представляється у фільмі «Доббс, лорд Доббс», він робить це в стилі кінофільмів про Джеймса Бонда, якими він відомий.


Тривалість: 01:34:35
Якість: Remux 1080p [USA Transfer]
Відео:
кодек:
розмір кадру: 1920 х 1080
бітрейт: 32,9 Mб/с

Аудіо # 1:
мова: українська
переклад: багатоголосий закадровий
кодек: 2.0
бітрейт: 192 кб/с

Аудіо # 2:
мова: українська
переклад: багатоголосий закадровий
кодек: 2.0
бітрейт: 192 кб/с

Аудіо # 3:
мова: українська
переклад: двоголосий закадровий
кодек: 5.1
бітрейт: 384 кб/с

Аудіо # 4:
мова: англійська
переклад: оригінал
кодек: -HD MA 5.1
бітрейт: 4489 кб/с

Аудіо # 5:
мова: англійська
переклад: оригінал
кодек: 5.1
бітрейт: 448 кб/с

Субтитри # 1: (Full)
мова: англійська
тип: програмні (м'які)
формат: *.srt

Субтитри # 2: (SDH)
мова: англійська
тип: пререндерні
формат: *.pgs

Збережено оригінальні розділи, як на Blu-ray.
Info
General
Unique ID : 219840056352986170496439223519310235787 (0xA563A79DBC3B3947805146ABF77BC88B)
Complete name : I:\+Фільмографії- Жан-Клод Ван Дамм [Jean-Claude Van Damme]\The Quest (1996) Remux 1080p 3xUkrEng Sub Eng [Hurtom].
Format :
Format version : Version 4
File size : 25.5 GiB
Duration : 1 h 34 min
Overall bit rate mode : Variable
Overall bit rate : 38.6 Mb/s
Movie name : У пошуках пригод / The Quest (1996) Remux 1080p 3xUkr/Eng | Sub Eng [Hurtom]
Encoded date : UTC 2019-12-09 10:59:25
Writing application : v25.0.0 ('Prog Noir') 64-bit
Writing library : libebml v1.3.6 + v1.4.9
Cover : Yes
Attachments : cover.jpg

Video
ID : 1
Format : AVC
Format/Info : Advanced Video Codec
Format profile : [email protected]
Format settings : CABAC / 4 Ref Frames
Format settings, CABAC : Yes
Format settings, Reference fra : 4 frames
Codec ID : V_MPEG4/ISO/AVC
Duration : 1 h 34 min
Bit rate mode : Variable
Bit rate : 32.9 Mb/s
Maximum bit rate : 35.0 Mb/s
Width : 1 920 pixels
Height : 1 080 pixels
Display aspect ratio : 16:9
Frame rate mode : Constant
Frame rate : 23.976 (24000/1001) FPS
Color space : YUV
Chroma subsampling : 4:2:0
Bit depth : 8 bits
Scan type : Progressive
Bits/(Pixel*Frame) : 0.662
Stream size : 21.7 GiB (85%)
Title : The Quest (1996) Remux 1080p 3xUkr/Eng | Sub Eng [Hurtom]
Language : Ukrainian
Default : Yes
Forced : Yes
Color range : Limited
Color primaries : BT.709
Transfer characteristics : BT.709
Matrix coefficients : BT.709

Audio #1
ID : 2
Format : AC-3
Format/Info : Audio Coding 3
Commercial name : Dolby Digital
Codec ID : A_AC3
Duration : 1 h 34 min
Bit rate mode : Constant
Bit rate : 192 kb/s
Channel(s) : 2 channels
Channel layout : L R
Sampling rate : 48.0 kHz
Frame rate : 31.250 FPS (1536 SPF)
Bit depth : 16 bits
Compression mode : Lossy
Stream size : 130 MiB (0%)
Title : MVO [Volia CINE+] 2.0
Language : Ukrainian
Service kind : Complete Main
Default : Yes
Forced : Yes

Audio #2
ID : 3
Format : AC-3
Format/Info : Audio Coding 3
Commercial name : Dolby Digital
Codec ID : A_AC3
Duration : 1 h 34 min
Bit rate mode : Constant
Bit rate : 192 kb/s
Channel(s) : 2 channels
Channel layout : L R
Sampling rate : 48.0 kHz
Frame rate : 31.250 FPS (1536 SPF)
Bit depth : 16 bits
Compression mode : Lossy
Stream size : 130 MiB (0%)
Title : MVO [ICTV] 2.0
Language : Ukrainian
Service kind : Complete Main
Default : No
Forced : No

Audio #3
ID : 4
Format : AC-3
Format/Info : Audio Coding 3
Commercial name : Dolby Digital
Codec ID : A_AC3
Duration : 1 h 34 min
Bit rate mode : Constant
Bit rate : 384 kb/s
Channel(s) : 6 channels
Channel layout : L R C LFE Ls Rs
Sampling rate : 48.0 kHz
Frame rate : 31.250 FPS (1536 SPF)
Bit depth : 16 bits
Compression mode : Lossy
Stream size : 260 MiB (1%)
Title : DVO [2+2] 5.1
Language : Ukrainian
Service kind : Complete Main
Default : No
Forced : No

Audio #4
ID : 5
Format : XLL
Format/Info : Digital Theater Systems
Commercial name : -HD Master Audio
Codec ID : A_DTS
Duration : 1 h 34 min
Bit rate mode : Variable
Bit rate : 4 489 kb/s
Channel(s) : 6 channels
Channel layout : C L R Ls Rs LFE
Sampling rate : 48.0 kHz
Frame rate : 93.750 FPS (512 SPF)
Bit depth : 24 bits
Compression mode : Lossless
Stream size : 2.97 GiB (12%)
Title : Original -HD MA 5.1
Language : English
Default : No
Forced : No

Audio #5
ID : 6
Format : AC-3
Format/Info : Audio Coding 3
Commercial name : Dolby Digital
Codec ID : A_AC3
Duration : 1 h 34 min
Bit rate mode : Constant
Bit rate : 448 kb/s
Channel(s) : 6 channels
Channel layout : L R C LFE Ls Rs
Sampling rate : 48.0 kHz
Frame rate : 31.250 FPS (1536 SPF)
Bit depth : 16 bits
Compression mode : Lossy
Stream size : 303 MiB (1%)
Title : Original 5.1
Language : English
Service kind : Complete Main
Default : No
Forced : No

Text #1
ID : 7
Format : UTF-8
Codec ID : S_TEXT/UTF8
Codec ID/Info : UTF-8 Plain Text
Duration : 1 h 29 min
Bit rate : 27 b/s
Count of elements : 599
Stream size : 18.3 KiB (0%)
Title : Eng (Full)
Language : English
Default : No
Forced : No

Text #2
ID : 8
Format : PGS
Muxing mode : zlib
Codec ID : S_HDMV/PGS
Codec ID/Info : Picture based subtitle format used on BDs/HD-DVDs
Duration : 1 h 29 min
Bit rate : 23.2 kb/s
Count of elements : 1735
Stream size : 14.9 MiB (0%)
Title : Eng (SDH)
Language : English
Default : No
Forced : No

Menu
00:00:00.000 : en:Chapter 1
00:03:02.306 : en:Chapter 2
00:07:03.923 : en:Chapter 3
00:14:49.889 : en:Chapter 4
00:20:49.665 : en:Chapter 5
00:27:52.504 : en:Chapter 6
00:35:59.282 : en:Chapter 7
00:40:10.074 : en:Chapter 8
00:46:52.184 : en:Chapter 9
00:52:59.384 : en:Chapter 10
00:59:32.568 : en:Chapter 11
01:09:12.857 : en:Chapter 12
01:14:04.273 : en:Chapter 13
01:21:10.740 : en:Chapter 14
01:25:49.644 : en:Chapter 15
01:29:48.299 : en:Chapter 16
Скріншоти
Джерело: &
За доріжку від ICTV подяка п. РОМЕО, п. Arsenfpu
За доріжку від 2+2 подяка п. JACKUS, п. xslim
За запис звуку з каналу Cine+ подяка п. Sando7
Особиста оцінка: 8 - мені сподобалося


Золотий реліз (завантажене не впливає на рейтинг)
 Трекер:    Зареєстрований   

Завантажити / скачати фільм українською



відео для новачків



 Зареєстрований:   2019-12-10 08:21
 Розмір:   25.52 GB 
 Оцінка фільму:   10/10 (Голосів: 8)
   
kryk-v.ya. 
Попереджень: 1
Попереджень: 1 


З нами з: 14.02.14
Востаннє: 27.09.20
Повідомлень: 2250

2019-12-10 11:28  
Цитата:
За запис звуку з каналу Cine+ подяка п. Sando7

скажіть будь-ласка, хто зводив?

MakRA 
VIP


З нами з: 11.11.18
Востаннє: 28.09.20
Повідомлень: 1120

2019-12-10 11:47  
kryk-v.ya. написано:
скажіть будь-ласка, хто зводив?

З цього релізу https://toloka.to/t97586

Додано через 1 хвилину 15 секунд:

Можливо пан drop_plz

kryk-v.ya. 
Попереджень: 1
Попереджень: 1 


З нами з: 14.02.14
Востаннє: 27.09.20
Повідомлень: 2250

2019-12-10 11:57  
MakRA написано:
drop_plz

дякую.

Ваш часовий пояс: GMT + 2 Години

Нова тема   Відповісти