Капітан Зум. Академія супергероїв (Zoom: Academy for Superheroes) / Zoom (2006) 720p Ukr/Eng | Sub Eng

Нові коментарі

Нова тема   Відповісти
Автор Повідомлення
Anonymous 







2019-12-10 00:19  
Капітан Зум. Академія супергероїв / Zoom: Academy for Superheroes (2006) 720p Ukr/Eng | Sub Eng

Капітан Зум. Академія супергероїв (Zoom: Academy for Superheroes) / Zoom (2006) 720p Ukr/Eng | Sub Eng


Жанр: екшн, пригодницький, сімейний, фантастика
Країна: США



Кінокомпанія: Revolution Studios, Team Todd, Underground Films and Management
Режисер: Пітер Хьюіт (Peter Hewitt)
Актори: Тім Аллен (Tim Allen), Кортні Кокс (Courteney Cox), Чеві Чейз (Chevy Chase), Спенсер Бреслін (Spencer Breslin), Кевін Зегерс (Kevin Zegers), Кейт Мара (Kate Mara), Майкл Кессіді (Michael Cassidy), Райан Ньюман (Ryan Newman), Ріп Торн (Rip Torn), Корнелія Гест (Cornelia Guest), Хантер Арніокоскі (Hunter Aarniokoski), Томас Ф. Вілсон (Thomas F. Wilson), Рідж Кенайп (Ridge Canipe), Денні МакКарті (Danny McCarthy), Девід Л. Лендер (David L. Lander), Лоурен Санчез (Lauren Sanchez), Уіллі Гарсон (Willie Garson), Томмі Чанг (Tommy Chang), Діанна ДеЛісл (Deanna DeLisle), Тріша Мюррей (Trisha Murray), Аарон Абрамс (Aaron Abrams), Макс Коммон (Max Common), Ніл Уайтлі (Neil Whitely), Меттью Вуд (Matthew Wood)

Сюжет:
Страшно, коли тебе не люблять і у тебе зовсім немає друзів. У тебе не залишається нічого, окрім образ і заздрості. Але одного разу твій тато, якого немає поруч, але він все-таки є, забирає тебе із звичайної школи в суперменську! Ось де виявляться всі твої таланти, потрібно тільки вірити в себе ...


Тривалість: 01:28:21
Якість: 720p
Відео:
кодек:
розмір кадру: 1280х720
бітрейт: 3891 кб/с

Аудіо # 1:
мова: українська
переклад: багатоголосий закадровий
кодек: 2.0 (з 5.1)
бітрейт: 192 кб/с

Аудіо # 2:
мова: англійська
переклад: оригінал
кодек: 5.1
бітрейт: 384 кб/с

Субтитри:
мова: англійська
тип: програмні (м'які)
формат: *.srt
Info
General
Unique ID : 217059661659864055054524250349177118759 (0xA34C2B92F18748EEBE433ED0378BA027)
Complete name : H:\Toloka\2019\Zoom (2006) 720p.
Format :
Format version : Version 4
File size : 2.81 GiB
Duration : 1 h 28 min
Overall bit rate : 4 558 kb/s
Encoded date : UTC 2019-12-09 21:14:00
Writing application : v6.1.0 ('Old Devil') built on Mar 4 2013 09:10:42
Writing library : libebml v1.3.0 + v1.4.0

Video
ID : 1
Format : AVC
Format/Info : Advanced Video Codec
Format profile : [email protected]
Format settings : 2 Ref Frames
Format settings, CABAC : No
Format settings, RefFrames : 2 frames
Codec ID : V_MPEG4/ISO/AVC
Duration : 1 h 28 min
Bit rate : 3 891 kb/s
Width : 1 280 pixels
Height : 720 pixels
Display aspect ratio : 16:9
Frame rate mode : Constant
Frame rate : 23.976 FPS
Color space : YUV
Chroma subsampling : 4:2:0
Bit depth : 8 bits
Scan type : Progressive
Bits/(Pixel*Frame) : 0.176
Stream size : 2.40 GiB (85%)
Language : English
Default : Yes
Forced : No
Color range : Limited
Color primaries : BT.709
Transfer characteristics : BT.709
Matrix coefficients : BT.709

Audio #1
ID : 2
Format : AC-3
Format/Info : Audio Coding 3
Commercial name : Dolby Digital
Codec ID : A_AC3
Duration : 1 h 28 min
Bit rate mode : Constant
Bit rate : 192 kb/s
Channel(s) : 2 channels
Channel layout : L R
Sampling rate : 48.0 kHz
Frame rate : 31.250 FPS (1536 SPF)
Bit depth : 16 bits
Compression mode : Lossy
Stream size : 121 MiB (4%)
Title : UKR (K1)
Language : Ukrainian
Service kind : Complete Main
Default : Yes
Forced : Yes

Audio #2
ID : 3
Format : AC-3
Format/Info : Audio Coding 3
Commercial name : Dolby Digital
Codec ID : A_AC3
Duration : 1 h 28 min
Bit rate mode : Constant
Bit rate : 384 kb/s
Channel(s) : 6 channels
Channel layout : L R C LFE Ls Rs
Sampling rate : 48.0 kHz
Frame rate : 31.250 FPS (1536 SPF)
Bit depth : 16 bits
Compression mode : Lossy
Stream size : 243 MiB (8%)
Title : ENG
Language : English
Service kind : Complete Main
Default : No
Forced : No

Text
ID : 4
Format : UTF-8
Codec ID : S_TEXT/UTF8
Codec ID/Info : UTF-8 Plain Text
Title : ENG
Language : English
Default : No
Forced : No

Menu
00:00:00.000 : en:The Concussion Problem
00:03:20.000 : en:Zoom
00:05:28.000 : en:The New Kids
00:08:45.000 : en:Testing
00:13:58.000 : en:Zoom Has Issues
00:18:06.000 : en:The Real Zoom
00:20:33.000 : en:Training Begins
00:22:40.000 : en:Holloway's Disappointment
00:26:45.000 : en:Joyride
00:33:29.000 : en:"Am I Different?"
00:36:38.000 : en:Hardcore Training
00:40:23.000 : en:You Don't Care
00:41:41.000 : en:Locked Up
00:43:28.000 : en:Simulator
00:46:25.000 : en:A Leader
00:48:04.000 : en:A Revelation
00:49:54.000 : en:Control And Execution
00:53:08.000 : en:Becoming A Team
00:54:09.000 : en:A Plan
00:55:09.000 : en:Prom Queens
00:59:47.000 : en:"Now We're A Family"
01:02:49.000 : en:The Truth Revealed
01:05:48.000 : en:Escape!
01:09:55.000 : en:A Brother's Return
01:12:57.000 : en:Return Of Powers
01:16:44.000 : en:"Let's Play Ball"
01:18:30.000 : en:"Got My Brother Back"
01:20:02.000 : en:New Beginning
Скріншоти







За українську доріжку подяка п.: SweetN, urij546724
За український постер подяка п. carrera_zola
Особиста подяка пану denixx за надану матеріальну допомогу на підтримку цього і майбутніх релізів.
Джерело:


 Трекер:    Зареєстрований   

Завантажити / скачати фільм українською



відео для новачків



 Зареєстрований:   2019-12-10 00:19
 Розмір:   2.81 GB 
 Оцінка фільму:   10/10 (Голосів: 2)
   
Інші релізи
Ваш часовий пояс: GMT + 2 Години

Нова тема   Відповісти