Єті / Abominable (2019) Remux 1080p Ukr/Eng | Sub Eng

Нові коментарі

Нова тема   Відповісти
Автор Повідомлення
Anonymous 







2019-12-08 22:52  
Єті / Abominable (2019) Remux 1080p Ukr/Eng | Sub Eng


Альтернативні постери


«Знайди свій шлях додому»



Жанр: комедія, мультфільм, пригоди, сімейний, фентезі
Країна: Китай, США





Кінокомпанія: DreamWorks Animation, Pearl Studio
Режисер: Джілл Калтон, Тодд Вилдерман
Актори: Хлоя Беннет, Альберт Тсаі, Тензінг Норгай Трейнор, Едді Іззард, Сара Полсон, Цай Чінь, Джеймс Хонг

Сюжет:
Коли дівчинка-тінейджер Йі зустрічає молодого Єті на даху свого висотного будинку в Шанхаї, вона та її друзі-бунтарі Чін і Пенг називають його Еверест і відправляються в епічний квест, щоб возз'єднати чарівну істоту з його родиною, яка живе на найвищій горі світу.


Тривалість: 01:37:13
Якість: Remux 1080p

Відео:
кодек:
розмір кадру: 1920x1080
бітрейт: 26 Мб/с

Аудіо # 1:
мова: українська
переклад: професійний дубльований
кодек: 2.0
бітрейт: 192 кб/с

Аудіо # 2:
мова: англійська
переклад: оригінал
кодек: 5.1
бітрейт: 448 кб/с

Аудіо # 3:
мова: англійська
переклад: оригінал
кодек: TrueHD + Atmos 7.1
бітрейт: 4374 кб/с

Субтитри (Full, SDH):
мова: англійська
тип: програмні (м'які)
формат: *.pgs

Info
Код:
General
Complete name                            : Abominable (2019) Remux 1080p [ukr,eng] [ViDeO_Hurtom] (1).
Format                                   :
Format version                           : Version 4
File size                                : 21.1 GiB
Duration                                 : 1 h 37 min
Overall bit rate mode                    : Variable
Overall bit rate                         : 31.1 Mb/s
Encoded date                             : UTC 2019-12-08 19:23:51
Writing application                      : v30.1.0 ('Forever And More') 64-bit
Writing library                          : libebml v1.3.6 + v1.4.9
Cover                                    : Yes
Attachments                              : cover.jpg

Video
ID                                       : 1
Format                                   : AVC
Format/Info                              : Advanced Video Codec
Format profile                           : [email protected]
Format settings                          : CABAC / 4 Ref Frames
Format settings, CABAC                   : Yes
Format settings, RefFrames               : 4 frames
Codec ID                                 : V_MPEG4/ISO/AVC
Duration                                 : 1 h 37 min
Bit rate mode                            : Variable
Bit rate                                 : 26.0 Mb/s
Maximum bit rate                         : 30.0 Mb/s
Width                                    : 1 920 pixels
Height                                   : 1 080 pixels
Display aspect ratio                     : 16:9
Frame rate mode                          : Constant
Frame rate                               : 23.976 (24000/1001) FPS
Color space                              : YUV
Chroma subsampling                       : 4:2:0
Bit depth                                : 8 bits
Scan type                                : Progressive
Bits/(Pixel*Frame)                       : 0.522
Stream size                              : 17.6 GiB (84%)
Default                                  : Yes
Forced                                   : No

Audio #1
ID                                       : 2
Format                                   : AC-3
Format/Info                              : Audio Coding 3
Commercial name                          : Dolby Digital
Codec ID                                 : A_AC3
Duration                                 : 1 h 37 min
Bit rate mode                            : Constant
Bit rate                                 : 192 kb/s
Channel(s)                               : 2 channels
Channel layout                           : L R
Sampling rate                            : 48.0 kHz
Frame rate                               : 31.250 FPS (1536 SPF)
Bit depth                                : 16 bits
Compression mode                         : Lossy
Delay relative to video                  : 6 ms
Stream size                              : 133 MiB (1%)
Title                                    : , 2/0 (L,C) ch, ~192 kbps
Language                                 : Ukrainian
Service kind                             : Complete Main
Default                                  : Yes
Forced                                   : No

Audio #2
ID                                       : 3
Format                                   : AC-3
Format/Info                              : Audio Coding 3
Commercial name                          : Dolby Digital
Codec ID                                 : A_AC3
Duration                                 : 1 h 37 min
Bit rate mode                            : Constant
Bit rate                                 : 448 kb/s
Channel(s)                               : 6 channels
Channel layout                           : L R C LFE Ls Rs
Sampling rate                            : 48.0 kHz
Frame rate                               : 31.250 FPS (1536 SPF)
Bit depth                                : 16 bits
Compression mode                         : Lossy
Stream size                              : 312 MiB (1%)
Title                                    : , 3/2 (L,C,R,l,r) + LFE ch, ~448 kbps
Language                                 : English
Service kind                             : Complete Main
Default                                  : No
Forced                                   : No

Audio #3
ID                                       : 4
Format                                   : MLP FBA 16-ch
Format/Info                              : Meridian Lossless Packing FBA with 16-channel presentation
Commercial name                          : Dolby TrueHD with Dolby Atmos
Codec ID                                 : A_TRUEHD
Duration                                 : 1 h 37 min
Bit rate mode                            : Variable
Bit rate                                 : 4 374 kb/s
Maximum bit rate                         : 7 389 kb/s
Channel(s)                               : 8 channels
Channel layout                           : L R C LFE Ls Rs Lb Rb
Sampling rate                            : 48.0 kHz
Frame rate                               : 1 200.000 FPS (40 SPF)
Compression mode                         : Lossless
Stream size                              : 2.97 GiB (14%)
Title                                    : TrueHD + Atmos MA 7.1, ~4374 kbps
Language                                 : English
Default                                  : No
Forced                                   : No
Number of dynamic objects                : 11
Bed channel count                        : 1 channel
Bed channel configuration                : LFE

Text #1
ID                                       : 5
Format                                   : PGS
Muxing mode                              : zlib
Codec ID                                 : S_HDMV/PGS
Codec ID/Info                            : Picture based subtitle format used on BDs/HD-DVDs
Duration                                 : 1 h 25 min
Bit rate                                 : 21.3 kb/s
Count of elements                        : 2350
Stream size                              : 13.0 MiB (0%)
Title                                    : Full
Language                                 : English
Default                                  : Yes
Forced                                   : No

Text #2
ID                                       : 6
Format                                   : PGS
Muxing mode                              : zlib
Codec ID                                 : S_HDMV/PGS
Codec ID/Info                            : Picture based subtitle format used on BDs/HD-DVDs
Duration                                 : 1 h 35 min
Bit rate                                 : 39.0 kb/s
Count of elements                        : 3094
Stream size                              : 26.7 MiB (0%)
Title                                    : SDH
Language                                 : English
Default                                  : No
Forced                                   : No
Скріншоти




Джерело:
Особиста оцінка: 9 - давно не бачив настільки якісне кіно


Золотий реліз (завантажене не впливає на рейтинг)
 Трекер:    Зареєстрований   

Завантажити / скачати мультфільм українською



відео для новачків



 Зареєстрований:   2019-12-08 22:52
 Розмір:   21.09 GB 
 Оцінка мультфільму:   9.9/10 (Голосів: 11)
   
Інші релізи
   Єті / Abominable (2019) UHD 1080p H.265 Ukr/Eng | Sub Eng -Star-Lord-  26 / 1   4.49 GB   2019-12-20 00:26 
   Єті / Abominable (2019) AVC Ukr/Eng | Sub Eng 11FrYkT  52 / 2   2.27 GB   2019-12-11 11:29 
   Єті / Abominable (2019) 720p Ukr/Eng | Sub Eng 11FrYkT  32 / 0   4.3 GB   2019-12-09 11:10 
   Єті / Abominable (2019) 1080p Ukr/Eng | Sub Eng staf777  49 / 2   10.47 GB   2019-12-09 02:53 
   Єті / Abominable (2019) antik_2008  96 / 3   1.47 GB   2019-12-08 19:18 
   Єті / Abominable (2019) UHD Remux 4K 2160p HDR H.265 Ukr/Eng | Sub Eng antik_2008  10 / 0   52.29 GB   2019-12-08 00:34 
sandman 
VIP


З нами з: 12.08.12
Востаннє: 25.02.20
Повідомлень: 303

2019-12-11 10:55  
Дуже добрий і позитивний мульт - вся родина дає "добро" Happy
remingtone 
Новенький


З нами з: 08.11.10
Востаннє: 23.01.20
Повідомлень: 12

2020-01-05 19:16  
ось не розумію. написано:

Якість: UHD
розмір кадру: 1920x1080


але 1920x1080 - це Full HD, а Ultra HD - це 3840х2160. то де ж помилка?

remingtone 
Новенький


З нами з: 08.11.10
Востаннє: 23.01.20
Повідомлень: 12

2020-01-13 10:38  
ok, раз ніхто не реагує на зауваження і не виправляє помилку, значить менше буду заходити на цей сайт. пишіть хоч 8К про відео 640х480
Ваш часовий пояс: GMT + 2 Години

Нова тема   Відповісти