Лічені секунди / Split Second (1992) Remux 1080p Ukr/Eng | Sub Eng

Нові коментарі

Нова тема   Відповісти
Останній раз роздавалося 01buzya (2020-09-24)
Автор Повідомлення
MakRA 
VIP


З нами з: 11.11.18
Востаннє: 24.09.20
Повідомлень: 1120

2019-12-08 20:22  
Лічені секунди / Split Second (1992) Remux 1080p Ukr/Eng | Sub Eng


Альтернативні обкладинки:





Жанр: екшн, кримінальний, жахи
Країна: Велика Британія



Кінокомпанія: Challenge Film Corporation, Entertainment, Muse Productions, XYZ Funding N.V.
Режисер: Tony Maylam [Тоні Мейлем]
Актори: Рутгер Гауер [Rutger Hauer], Кім Кетролл [Kim Cattrall], Ніл Дункан [Alastair Duncan], Майкл Дж. Поллард [Michael J. Pollard], Алан Армстронг [Alun Armstrong], Піт Постлетвейт [Pete Postlethwaite], Йєн Дюрі [Ian Dury], Роберта Ітон [Roberta Eaton], Тоні Стідман [Tony Steedman]

Сюжет:
2008 рік. Після глобального потепління льодовики розтанули і частина суші опинилася під водою. У Лондоні з'явився невідомий, який по-звірячому вбиває людей, поїдаючи їх серця. Слідами серійного вбивці йде поліцейський Гарлі Стоун, який втратив напарника з вини цього вбивці. Ніхто не вірить Стоуну, коли той стверджує, що це не звичайний серійний вбивця...


Тривалість: 01:30:25
Якість: Remux 1080p [GER Transfer]
Відео:
кодек:
розмір кадру: 1920 х 1080
бітрейт: 27,5 Mб/с

Аудіо # 1:
мова: українська
переклад: багатоголосий закадровий
кодек: 2.0
бітрейт: 192 кб/с

Аудіо # 2:
мова: англійська
переклад: оригінал
кодек: 5.1
бітрейт: 448 кб/с

Субтитри: (Full)
мова: англійська
тип: програмні (м'які)
формат: *.srt

Збережено оригінальні розділи, як на Blu-ray.
Info
General
Unique ID : 140885774401214739955651332766442429487 (0x69FD9CF86E347970EF4E68B1D64B9C2F)
Complete name : I:\+Фільмографії- Рутгер Гауер [Rutger Oelsen Hauer]\Split Second (1992) Remux 1080p UkrEng Sub Eng [Hurtom].
Format :
Format version : Version 4
File size : 17.8 GiB
Duration : 1 h 30 min
Overall bit rate mode : Variable
Overall bit rate : 28.1 Mb/s
Movie name : Лічені секунди / Split Second (1992) Remux 1080p Ukr/Eng | Sub Eng [Hurtom]
Encoded date : UTC 2019-12-07 22:32:15
Writing application : v25.0.0 ('Prog Noir') 64-bit
Writing library : libebml v1.3.6 + v1.4.9
Cover : Yes
Attachments : cover.jpg

Video
ID : 1
Format : AVC
Format/Info : Advanced Video Codec
Format profile : [email protected]
Format settings : CABAC / 3 Ref Frames
Format settings, CABAC : Yes
Format settings, Reference fra : 3 frames
Format settings, GOP : M=3, N=23
Codec ID : V_MPEG4/ISO/AVC
Duration : 1 h 30 min
Bit rate mode : Variable
Bit rate : 27.5 Mb/s
Maximum bit rate : 35.0 Mb/s
Width : 1 920 pixels
Height : 1 080 pixels
Display aspect ratio : 16:9
Frame rate mode : Constant
Frame rate : 23.976 (24000/1001) FPS
Standard : NTSC
Color space : YUV
Chroma subsampling : 4:2:0
Bit depth : 8 bits
Scan type : Progressive
Bits/(Pixel*Frame) : 0.553
Stream size : 17.4 GiB (98%)
Title : Split Second (1992) Remux 1080p Ukr/Eng | Sub Eng [Hurtom]
Language : Ukrainian
Default : Yes
Forced : Yes
Color range : Limited
Color primaries : BT.709
Transfer characteristics : BT.709
Matrix coefficients : BT.709

Audio #1
ID : 2
Format : AC-3
Format/Info : Audio Coding 3
Commercial name : Dolby Digital
Codec ID : A_AC3
Duration : 1 h 30 min
Bit rate mode : Constant
Bit rate : 192 kb/s
Channel(s) : 2 channels
Channel layout : L R
Sampling rate : 48.0 kHz
Frame rate : 31.250 FPS (1536 SPF)
Bit depth : 16 bits
Compression mode : Lossy
Stream size : 124 MiB (1%)
Title : MVO [КІНО] 2.0
Language : Ukrainian
Service kind : Complete Main
Default : Yes
Forced : Yes

Audio #2
ID : 3
Format : AC-3
Format/Info : Audio Coding 3
Commercial name : Dolby Digital
Codec ID : A_AC3
Duration : 1 h 30 min
Bit rate mode : Constant
Bit rate : 448 kb/s
Channel(s) : 6 channels
Channel layout : L R C LFE Ls Rs
Sampling rate : 48.0 kHz
Frame rate : 31.250 FPS (1536 SPF)
Bit depth : 16 bits
Compression mode : Lossy
Stream size : 290 MiB (2%)
Title : Original 5.1
Language : English
Service kind : Complete Main
Default : No
Forced : No

Text
ID : 4
Format : UTF-8
Codec ID : S_TEXT/UTF8
Codec ID/Info : UTF-8 Plain Text
Duration : 1 h 24 min
Bit rate : 41 b/s
Count of elements : 809
Stream size : 25.5 KiB (0%)
Title : Eng (Full)
Language : English
Default : No
Forced : No

Menu
00:00:00.000 : en:00:00:00.000
00:00:00.375 : en:00:00:00.375
00:11:27.437 : en:00:11:27.437
00:28:56.985 : en:00:28:56.985
00:43:52.296 : en:00:43:52.296
00:59:27.814 : en:00:59:27.814
01:12:43.109 : en:01:12:43.109
01:20:28.240 : en:01:20:28.240
01:27:39.171 : en:01:27:39.171
Скріншоти
Джерело: &
За запис з ТБ дякую пану Bohdan237, синхронізація п. Arsenfpu
Особиста оцінка: 8 - мені сподобалося


Золотий реліз (завантажене не впливає на рейтинг)
 Трекер:    Зареєстрований   

Завантажити / скачати фільм українською



відео для новачків



 Зареєстрований:   2019-12-08 20:22
 Розмір:   17.77 GB 
 Оцінка фільму:   9.7/10 (Голосів: 7)
   
Інші релізи
   Лічені секунди / Split Second (1992) 1080p Ukr/Eng | Sub Eng staf777  2 / 0   9.12 GB   2019-02-12 15:04 
   Лічені секунди / Split Second (1992) AVC Ukr/Eng Arsenfpu  3 / 0   2.24 GB   2018-04-26 11:33 
   Лічені секунди / Split Second (1992) 720p Ukr/Eng | Sub Eng staf777  2 / 0   4.83 GB   2017-02-19 17:10 
   Лічені секунди / Split Second (1992) Ukr/Eng MAKAPOHHIK  0 / 0   1.46 GB   2010-06-17 17:40 
Ваш часовий пояс: GMT + 2 Години

Нова тема   Відповісти