Земля до початку часів 8: Велика холоднеча / The Land Before Time VIII: The big freeze (2001) 1080p Ukr/Eng | Sub Eng

Нові коментарі

Нова тема   Відповісти
Автор Повідомлення
sergiyko.5 
VIP


З нами з: 25.02.16
Востаннє: 28.02.20
Повідомлень: 2957

2019-12-08 01:21  
Всі одноіменні релізи на трекері

Земля до початку часів 8: Велика холоднеча / The Land Before Time VIII: The big freeze (2001) 1080p Ukr/Eng | Sub Eng


Земля до початку часів 8: Велика холоднеча / The Land Before Time VIII: The big freeze (2001) 1080p Ukr/Eng | Sub Eng

Жанр: мультфільм, пригодницький, сімейний
Країна: США
Кінокомпанія: Universal Cartoon Studios
Режисер: Чарльз Гросвенор

Сюжет:
Сталося диво! У Великій Долині вперше випав сніг, і місцевим жителям вперше пощастило спостерігати це надзвичайне природне явище! Але захоплення швидко змінилося на тривогу: ящери почали розуміти, що абсолютно не пристосовані до зими, і холоднеча може стати їхньою погибеллю.
А тут ще почалися проблеми з нашим старим знайомим - малюком Спайком. Після візиту до компанії кочівних стегозаврів Спайк вирішив піти зі своїми новими знайомими подалі від холоду, долаючи непростий шлях. Тепер Літлфут і компанія збираються в небезпечну подорож, щоб врятувати свого непосидючого друга!




Тривалість: 01:15:48
Якість:

Відео: кодек: розмір кадру: 1920 х 1080 бітрейт: 3000 кб/с
Аудіо # 1: мова: українська переклад: професійний дубльований кодек: 2.0 бітрейт: 192 кб/с
Озвучення:
Аудіо # 2: мова: англійська переклад: оригінал кодек: + 5.1 бітрейт: 640 кб/с
Субтитри: мова: англійська тип: програмні (м'які) формат: *.srt
Про файл:
General
Unique ID : 204344574868372762585264468914612532576 (0x99BB5564EC349B373A3375D1DD60F560)
Complete name : D:\Documents\Torrents\MULT\The.Land.Before.Time.VIII.The.Big.Freeze.2001.1080p..
Format :
Format version : Version 4
File size : 2.05 GiB
Duration : 1 h 15 min
Overall bit rate mode : Variable
Overall bit rate : 3 873 kb/s
Movie name : rip by sergiyko
Encoded date : UTC 2019-12-07 23:16:02
Writing application : v41.0.0 ('Smarra') 64-bit
Writing library : libebml v1.3.9 + v1.5.2

Video
ID : 1
Format : AVC
Format/Info : Advanced Video Codec
Format profile : [email protected]
Format settings : CABAC / 4 Ref Frames
Format settings, CABAC : Yes
Format settings, Reference : 4 frames
Codec ID : V_MPEG4/ISO/AVC
Duration : 1 h 15 min
Bit rate mode : Variable
Bit rate : 3 039 kb/s
Maximum bit rate : 15.0 Mb/s
Width : 1 920 pixels
Height : 1 080 pixels
Display aspect ratio : 16:9
Frame rate mode : Constant
Frame rate : 23.976 (24000/1001) FPS
Color space : YUV
Chroma subsampling : 4:2:0
Bit depth : 8 bits
Scan type : Progressive
Bits/(Pixel*Frame) : 0.061
Stream size : 1.61 GiB (78%)
Title : The.Land.Before.Time.VIII.The.Big.Freeze.2001
Language : English
Default : Yes
Forced : No
Color range : Limited
Color primaries : BT.709
Transfer characteristics : BT.709
Matrix coefficients : BT.709

Audio #1
ID : 2
Format : AC-3
Format/Info : Audio Coding 3
Commercial name : Dolby Digital
Codec ID : A_AC3
Duration : 1 h 15 min
Bit rate mode : Constant
Bit rate : 192 kb/s
Channel(s) : 2 channels
Channel layout : L R
Sampling rate : 48.0 kHz
Frame rate : 31.250 FPS (1536 SPF)
Compression mode : Lossy
Stream size : 104 MiB (5%)
Title : DUB 2ch | К1
Language : Ukrainian
Service kind : Complete Main
Default : Yes
Forced : Yes

Audio #2
ID : 3
Format : E-AC-3
Format/Info : Enhanced AC-3
Commercial name : Dolby Digital Plus
Codec ID : A_EAC3
Duration : 1 h 15 min
Bit rate mode : Constant
Bit rate : 640 kb/s
Channel(s) : 6 channels
Channel layout : L R C LFE Ls Rs
Sampling rate : 48.0 kHz
Frame rate : 31.250 FPS (1536 SPF)
Compression mode : Lossy
Delay relative to video : 21 ms
Stream size : 347 MiB (17%)
Title : Original
Language : English
Service kind : Complete Main
Default : No
Forced : No

Text
ID : 4
Format : UTF-8
Codec ID : S_TEXT/UTF8
Codec ID/Info : UTF-8 Plain Text
Duration : 1 h 11 min
Bit rate : 56 b/s
Count of elements : 929
Stream size : 29.8 KiB (0%)
Language : English
Default : No
Forced : No
Скріншоти:


Запис: Петров Микола
Зведення: sergiyko


Срібний реліз (на рейтинг впливає 50% завантаженого)
 Трекер:    Зареєстрований   

Завантажити / скачати мультфільм українською



відео для новачків



 Зареєстрований:   2019-12-08 01:25
 Розмір:   2.05 GB 
 Оцінка мультфільму:   10/10 (Голосів: 7)
   
max factor 
Частий відвідувач


З нами з: 08.01.19
Востаннє: 08.02.20
Повідомлень: 31

2019-12-08 22:24  
Надзвичайно дякую авторам відеомонтажу, які записали та обробили мультфільм. Моя безмежна повага до вас.
Ваш часовий пояс: GMT + 2 Години

Нова тема   Відповісти