Земля до початку часів 9. Подорож до великої води / The Land Before Time IX. Journey To Big Water (2002) 1080p Ukr/Eng

Нові коментарі

Нова тема   Відповісти
Автор Повідомлення
sergiyko.5 
Забанено
Забанено


З нами з: 25.02.16
Востаннє: 29.10.20
Повідомлень: 3648

2019-12-08 01:09  
Всі одноіменні релізи на трекері

Земля до початку часів 9. Подорож до великої води / The Land Before Time IX. Journey To Big Water (2002) 1080p Ukr/Eng


Земля до початку часів 9. Подорож до великої води / The Land Before Time IX. Journey To Big Water (2002) 1080p Ukr/Eng

Жанр: мультфільм, пригодницький, сімейний
Країна: США
Кінокомпанія: Universal Cartoon Studios
Режисер: Чарльз Гросвенор

Сюжет:
Після сильних дощів у Великій Долині утворилася таємнича "нова вода". Малюк Літлфут вирушає в похід, щоб якомога швидше на власні очі побачити "нову пам'ятку".
Тут наш герой знайомиться з веселим Мо, кумедною, схожою на дельфіна, істотою, яка не може знайти дорогу до Великої Води. Літлфут та його милі товарищі приходять на допомогу своєму новому другові!




Тривалість: 01:14:38
Якість:

Відео: кодек: розмір кадру: 1440 х 1080 бітрейт: 3600 кб/с
Аудіо # 1: мова: українська переклад: професійний дубльований кодек: 2.0 бітрейт: 192 кб/с
Озвучення:
Аудіо # 2: мова: англійська переклад: оригінал кодек: + 5.1 бітрейт: 640 кб/с
Субтитри: мова: англійська тип: програмні (м'які) формат: *.srt
Про файл:
General
Unique ID : 165031768717782847016506774593455760362 (0x7C27F6675FFD34BD35F83C7267BFA3EA)
Complete name : D:\Documents\Torrents\MULT\The.Land.Before.Time.IX.Journey.to.Big.Water.2002.1080p..
Format :
Format version : Version 4
File size : 2.31 GiB
Duration : 1 h 14 min
Overall bit rate mode : Variable
Overall bit rate : 4 429 kb/s
Movie name : rip by sergiyko
Encoded date : UTC 2019-12-07 23:03:23
Writing application : v41.0.0 ('Smarra') 64-bit
Writing library : libebml v1.3.9 + v1.5.2
Cover : Yes
Attachments : cover.jpg

Video
ID : 1
Format : AVC
Format/Info : Advanced Video Codec
Format profile : [email protected]
Format settings : CABAC / 4 Ref Frames
Format settings, CABAC : Yes
Format settings, Reference : 4 frames
Codec ID : V_MPEG4/ISO/AVC
Duration : 1 h 14 min
Bit rate mode : Variable
Bit rate : 3 595 kb/s
Maximum bit rate : 15.0 Mb/s
Width : 1 440 pixels
Height : 1 080 pixels
Display aspect ratio : 4:3
Frame rate mode : Constant
Frame rate : 23.976 (24000/1001) FPS
Color space : YUV
Chroma subsampling : 4:2:0
Bit depth : 8 bits
Scan type : Progressive
Bits/(Pixel*Frame) : 0.096
Stream size : 1.87 GiB (81%)
Title : The.Land.Before.Time.IX.Journey.to.Big.Water.2002
Language : English
Default : Yes
Forced : No
Color range : Limited
Color primaries : BT.709
Transfer characteristics : BT.709
Matrix coefficients : BT.709

Audio #1
ID : 2
Format : AC-3
Format/Info : Audio Coding 3
Commercial name : Dolby Digital
Codec ID : A_AC3
Duration : 1 h 14 min
Bit rate mode : Constant
Bit rate : 192 kb/s
Channel(s) : 2 channels
Channel layout : L R
Sampling rate : 48.0 kHz
Frame rate : 31.250 FPS (1536 SPF)
Compression mode : Lossy
Stream size : 102 MiB (4%)
Title : DUB 2ch | К1
Language : Ukrainian
Service kind : Complete Main
Default : Yes
Forced : Yes

Audio #2
ID : 3
Format : E-AC-3
Format/Info : Enhanced AC-3
Commercial name : Dolby Digital Plus
Codec ID : A_EAC3
Duration : 1 h 14 min
Bit rate mode : Constant
Bit rate : 640 kb/s
Channel(s) : 6 channels
Channel layout : L R C LFE Ls Rs
Sampling rate : 48.0 kHz
Frame rate : 31.250 FPS (1536 SPF)
Compression mode : Lossy
Delay relative to video : 21 ms
Stream size : 342 MiB (14%)
Title : Original
Language : English
Service kind : Complete Main
Default : No
Forced : No

Text
ID : 4
Format : UTF-8
Codec ID : S_TEXT/UTF8
Codec ID/Info : UTF-8 Plain Text
Duration : 1 h 13 min
Bit rate : 53 b/s
Count of elements : 1023
Stream size : 28.7 KiB (0%)
Language : English
Default : No
Forced : No

Menu
00:00:00.000 : en:Opening credits
00:02:25.997 : en:Littlefoot waits with his Grandpa & Grandma for the heavy rain to end, valley
00:04:03.997 : en:Littlefoot asks his friends to play with him, valley
00:07:27.997 : en:Littlefoot & his friends sing about being bored with their lives, valley
00:10:11.997 : en:Littlefoot asks his Grandpa & Grandma what he should do for fun, riverbank
00:12:42.997 : en:Littlefoot finds a waterfall & shows the adult dinosaurs, lagoon
00:15:48.997 : en:Littlefoot finds a new friend Mo, lagoon
00:19:24.997 : en:The gang is curious about Littlefoot's new friend, lagoon
00:23:16.997 : en:Petrie & his friends sing a song about their imaginary friend, valley
00:25:55.997 : en:Mo meets Littlefoot's friends & tries to warn them about a sharp-toothed creature, lagoon
00:30:29.997 : en:Littlefoot asks the adults to help Mo & runs into trouble, lagoon & gorge
00:33:32.997 : en:Littlefoot promises to help Mo
00:36:50.997 : en:Mo goofs around while Littlefoot's gang leads him back to the ocean, river
00:38:53.997 : en:Littlefoot's gang tries to get Mo around an impasse
00:42:13.997 : en:Ducky cheers up the gang with a song about big water
00:45:42.997 : en:The gang loses Ducky & encounters a new creature, leafy riverbank
00:48:01.997 : en:Littlefoot's gang sings that no one has to be alone
00:51:52.997 : en:Littlefoot's gang joins Mo in the water
00:55:38.997 : en:The sharp-toothed creature goes after Littlefoot's gang, river
00:59:16.997 : en:Littlefoot's gang consoles him & learns what happened to Mo, river
01:03:22.997 : en:Littlefoot's gang brings Mo to the ocean
01:08:42.997 : en:Littlefoot & friends return back to their home & are happy to see their parents, valley
01:10:44.997 : en:End credits
01:13:43.997 : en:Studio logo
Скріншоти:


Запис: Петров Микола
Зведення: sergiyko


Срібний реліз (на рейтинг впливає 50% завантаженого)
 Трекер:    Зареєстрований   

Завантажити / скачати мультфільм українською



відео для новачків



 Зареєстрований:   2019-12-08 01:26
 Розмір:   2.31 GB 
 Оцінка мультфільму:   10/10 (Голосів: 9)
   
ivasykus 
VIP


З нами з: 10.02.09
Востаннє: 02.03.21
Повідомлень: 606

2019-12-08 01:12  
А є записи 5 і 8 частин? Їх по К1 за ці пів рок вже кілька разів крутили, але все щось нікому не вдається зловити.
max factor 
Частий відвідувач


З нами з: 08.01.19
Востаннє: 01.02.21
Повідомлень: 42

2019-12-08 22:31  
ivasykus, я впевнений що 5 частину ще покажуть, адже цей мультфыльм дуже життєвий та пригодницький, також із сімейними цінностями. А 8 частину на днях записали і виклали.

Надзвичайно дякую автору відеомонтажу, який записав та обробив мультфільм. Моя безмежна повага до вас.

andros507 
VIP


З нами з: 15.09.10
Востаннє: 07.03.21
Повідомлень: 326

2019-12-09 13:08  
Багатоголоску з Нового додасте?
Ваш часовий пояс: GMT + 2 Години

Нова тема   Відповісти