Єті / Abominable (2019) UHD Remux 4K 2160p HDR H.265 Ukr/Eng | Sub Eng

Нові коментарі

Нова тема   Відповісти
Автор Повідомлення
Anonymous 







2019-12-07 23:08  
Єті / Abominable (2019) UHD Remux 4K 2160p HDR H.265 Ukr/Eng | Sub Eng


Альтернативні постери


«Знайди свій шлях додому»



Жанр: комедія, мультфільм, пригоди, сімейний, фентезі
Країна: Китай, США





Кінокомпанія: DreamWorks Animation, Pearl Studio
Режисер: Джілл Калтон, Тодд Вилдерман
Актори: Хлоя Беннет, Альберт Тсаі, Тензінг Норгай Трейнор, Едді Іззард, Сара Полсон, Цай Чінь, Джеймс Хонг

Сюжет:
Коли дівчинка-тінейджер Йі зустрічає молодого Єті на даху свого висотного будинку в Шанхаї, вона та її друзі-бунтарі Чін і Пенг називають його Еверест і відправляються в епічний квест, щоб возз'єднати чарівну істоту з його родиною, яка живе на найвищій горі світу.


Тривалість: 01:37:13
Якість: UHD Remux 4K 2160p

Відео:
кодек: H.265 (HEVC)
розмір кадру: 3840x2160
бітрейт: ~71900 кб/с
бітова глибина: 10 біт
кольоровий простір: BT.2020 (HDR)

Аудіо # 1:
мова: українська
переклад: професійний дубльований
кодек: 2.0
бітрейт: 192 кб/с

Аудіо # 2:
мова: англійська
переклад: оригінал
кодек: 5.1
бітрейт: 448 кб/с

Аудіо # 3:
мова: англійська
переклад: оригінал
кодек: TrueHD + Atmos 7.1
бітрейт: 4374 кб/с

Субтитри (Full):
мова: англійська
тип: програмні (м'які)
формат: *.srt

Info
Код:
General
Complete name                            : Abominable (2019) UHD Remux 4K 2160p HDR H.265 (HEVC) [UKR_ENG] [ViDeO_Hurtom].
Format                                   :
Format version                           : Version 4
File size                                : 52.3 GiB
Duration                                 : 1 h 37 min
Overall bit rate mode                    : Variable
Overall bit rate                         : 77.0 Mb/s
Encoded date                             : UTC 2019-12-07 19:47:49
Writing application                      : v30.1.0 ('Forever And More') 64-bit
Writing library                          : libebml v1.3.6 + v1.4.9
Cover                                    : Yes
Attachments                              : cover.jpg

Video
ID                                       : 1
Format                                   : HEVC
Format/Info                              : High Efficiency Video Coding
Commercial name                          : HDR10
Format profile                           : Main [email protected]@High
Codec ID                                 : V_MPEGH/ISO/HEVC
Duration                                 : 1 h 37 min
Bit rate                                 : 71.9 Mb/s
Width                                    : 3 840 pixels
Height                                   : 2 160 pixels
Display aspect ratio                     : 16:9
Frame rate mode                          : Constant
Frame rate                               : 23.976 (24000/1001) FPS
Color space                              : YUV
Chroma subsampling                       : 4:2:0 (Type 2)
Bit depth                                : 10 bits
Bits/(Pixel*Frame)                       : 0.362
Stream size                              : 48.8 GiB (93%)
Title                                    : Remux.2160p.HDR.TeamHD by Silverok
Writing library                          : ATEME Titan File 3.9.0 (4.9.0.0)
Default                                  : Yes
Forced                                   : No
Color range                              : Limited
Color primaries                          : BT.2020
Transfer characteristics                 : PQ
Matrix coefficients                      : BT.2020 non-constant
Mastering display color primaries        : Display P3
Mastering display luminance              : min: 0.0050 cd/m2, max: 1000 cd/m2
Maximum Content Light Level              : 1003 cd/m2
Maximum Frame-Average Light Level        : 145 cd/m2

Audio #1
ID                                       : 2
Format                                   : AC-3
Format/Info                              : Audio Coding 3
Commercial name                          : Dolby Digital
Codec ID                                 : A_AC3
Duration                                 : 1 h 37 min
Bit rate mode                            : Constant
Bit rate                                 : 192 kb/s
Channel(s)                               : 2 channels
Channel layout                           : L R
Sampling rate                            : 48.0 kHz
Frame rate                               : 31.250 FPS (1536 SPF)
Bit depth                                : 16 bits
Compression mode                         : Lossy
Stream size                              : 133 MiB (0%)
Title                                    : , 2/0 (L,R) ch, ~192 kbps
Language                                 : Ukrainian
Service kind                             : Complete Main
Default                                  : Yes
Forced                                   : No

Audio #2
ID                                       : 3
Format                                   : AC-3
Format/Info                              : Audio Coding 3
Commercial name                          : Dolby Digital
Codec ID                                 : A_AC3
Duration                                 : 1 h 37 min
Bit rate mode                            : Constant
Bit rate                                 : 448 kb/s
Channel(s)                               : 6 channels
Channel layout                           : L R C LFE Ls Rs
Sampling rate                            : 48.0 kHz
Frame rate                               : 31.250 FPS (1536 SPF)
Bit depth                                : 16 bits
Compression mode                         : Lossy
Stream size                              : 312 MiB (1%)
Title                                    : , 3/2 (L,C,R,l,r) + LFE ch, ~448 kbps
Language                                 : English
Service kind                             : Complete Main
Default                                  : No
Forced                                   : No

Audio #3
ID                                       : 4
Format                                   : MLP FBA 16-ch
Format/Info                              : Meridian Lossless Packing FBA with 16-channel presentation
Commercial name                          : Dolby TrueHD with Dolby Atmos
Codec ID                                 : A_TRUEHD
Duration                                 : 1 h 37 min
Bit rate mode                            : Variable
Bit rate                                 : 4 374 kb/s
Maximum bit rate                         : 7 389 kb/s
Channel(s)                               : 8 channels
Channel layout                           : L R C LFE Ls Rs Lb Rb
Sampling rate                            : 48.0 kHz
Frame rate                               : 1 200.000 FPS (40 SPF)
Compression mode                         : Lossless
Stream size                              : 2.97 GiB (6%)
Title                                    : Atmos TrueHD 7.1, ~4374 kbps
Language                                 : English
Default                                  : No
Forced                                   : No
Number of dynamic objects                : 11
Bed channel count                        : 1 channel
Bed channel configuration                : LFE

Text
ID                                       : 5
Format                                   : UTF-8
Codec ID                                 : S_TEXT/UTF8
Codec ID/Info                            : UTF-8 Plain Text
Duration                                 : 1 h 25 min
Bit rate                                 : 46 b/s
Count of elements                        : 1175
Stream size                              : 29.0 KiB (0%)
Title                                    : Full
Language                                 : English
Default                                  : Yes
Forced                                   : No

Menu
00:00:00.000                             : en:Chapter 01
00:04:12.502                             : en:Chapter 02
00:09:11.551                             : en:Chapter 03
00:13:42.905                             : en:Chapter 04
00:16:14.265                             : en:Chapter 05
00:21:35.419                             : en:Chapter 06
00:25:03.127                             : en:Chapter 07
00:29:31.103                             : en:Chapter 08
00:33:58.119                             : en:Chapter 09
00:36:44.452                             : en:Chapter 10
00:41:53.678                             : en:Chapter 11
00:46:31.372                             : en:Chapter 12
00:50:42.998                             : en:Chapter 13
00:56:32.222                             : en:Chapter 14
01:01:41.197                             : en:Chapter 15
01:06:33.865                             : en:Chapter 16
01:11:45.092                             : en:Chapter 17
01:15:27.022                             : en:Chapter 18
01:20:42.212                             : en:Chapter 19
01:26:45.075                             : en:Chapter 20

Скріншоти




Джерело:
Особиста оцінка: 0 - не дивився


Золотий реліз (завантажене не впливає на рейтинг)
 Трекер:    Зареєстрований   

Завантажити / скачати мультфільм українською



відео для новачків



 Зареєстрований:   2019-12-08 00:34
 Розмір:   52.29 GB 
 Оцінка мультфільму:   9.8/10 (Голосів: 9)
   
Інші релізи
   Єті / Abominable (2019) UHD 1080p H.265 Ukr/Eng | Sub Eng -Star-Lord-  15 / 0   4.49 GB   2019-12-20 00:26 
   Єті / Abominable (2019) AVC Ukr/Eng | Sub Eng 11FrYkT  16 / 0   2.27 GB   2019-12-11 11:29 
   Єті / Abominable (2019) 720p Ukr/Eng | Sub Eng 11FrYkT  19 / 0   4.3 GB   2019-12-09 11:10 
   Єті / Abominable (2019) 1080p Ukr/Eng | Sub Eng staf777  14 / 0   10.47 GB   2019-12-09 02:53 
   Єті / Abominable (2019) Remux 1080p Ukr/Eng | Sub Eng antik_2008  3 / 0   21.09 GB   2019-12-08 22:52 
   Єті / Abominable (2019) antik_2008  21 / 0   1.47 GB   2019-12-08 19:18 
Ваш часовий пояс: GMT + 2 Години

Нова тема   Відповісти