Гремліни, Гремліни 2: Нова партія. Дилогія / Gremlins, Gremlins 2: The New Batch. Dilogy (1984-1990) Remux 1080p 2xUkr/Eng | Sub Eng

Нові коментарі

Нова тема   Відповісти
Останній раз роздавалося MakRA (2021-01-28)
Автор Повідомлення
MakRA 
VIP


З нами з: 10.11.18
Востаннє: 28.01.21
Повідомлень: 1168

2019-12-07 13:39  
Гремліни, Гремліни 2: Нова партія. Дилогія / Gremlins, Gremlins 2: The New Batch. Dilogy
(1984-1990) Remux 1080p 2xUkr/Eng | Sub Eng


Альтернативні обкладинки:


Жанр: комедія, фентезі, жахи
Країна: США
Кінокомпанія: Warner Bros. Pictures, Amblin Entertainment
Режисер: Джо Данте [Joe Dante]
Продюсер: Стівен Спілберг [Steven Spielberg], Френк Маршалл [Frank James Marshall]
Сценарист: Кріс Коламбус [Christopher Joseph Columbus]
Композитор: Джеррі Голдсміт [Jerrald King "Jerry" Goldsmit]
Гремліни / Gremlins (1984) Remux 1080p 2xUkr/Eng | Sub Eng


Гремліни / Gremlins (1984) Remux 1080p 2xUkr/Eng | Sub Eng



Український постер:

[
Альтернативна обкладинка:



Актори:Зак Геліган [Zach Galligan], Фібі Кейтс [Phoebe Cates], Гойт Екстон [Hoyt Axton], Стівен Спілберґ [Steven Spielberg], Поллі Голлідей [Polly Holliday], Френсіс Лі МакКейн [Frances Lee McCain], Корі Фельдман [Corey Feldman], Скотт Брейді [Scott Brady], Дік Міллер [Dick Miller], Едвард Ендрюс [Edward Andrews].

Сюжет:
Культовий комедійний ужастик, з дотепними жартами та цікавим сюжетом про те, що буває, якщо порушувати правила.

За сюжетом, юнакові на ім’я Біллі Пельтцер, в переддень Різдва, подарували чарівне звірятко на прізвисько Магвай. Хлопця попередили, що Магвай може загинути від прямих сонячних променів. А ще суворо заборонили мочити його водою, адже наслідки можуть стати жахливими.
Спочатку, Біллі суворо дотримувався правил, але молодість, закоханість і метушня привели до маленької неприємності - Магвая намочили. Маленька неприємність перетворилася в справжню катастрофу, яка ледь не знищила провінційне містечко, в якому жив Біллі...


Тривалість: 01:46:16
Якість: Remux 1080p
Відео:
кодек: VC-1
розмір кадру: 1920 х 1080
бітрейт: 20 Mб/с

Аудіо # 1:
мова: українська
переклад: багатоголосий закадровий
кодек: 2.0
бітрейт: 192 кб/с

Аудіо # 2:
мова: українська
переклад: багатоголосий закадровий | студія "Так Треба Продакшн"
кодек: 5.1
бітрейт: 384 кб/с

Аудіо # 3:
мова: англійська
переклад: оригінал
кодек: TrueHD 5.1
бітрейт: 1554 кб/с

Аудіо # 4:
мова: англійська
переклад: оригінал
кодек: 5.1
бітрейт: 640 кб/с

Аудіо # 5:
мова: англійська
переклад: коментарі режисера Джо Данте, акторів Фібі Кейтс, Зака Галлігана, Діка Міллера та Хоуї Манделя
кодек: 2.0
бітрейт: 192 кб/с

Субтитри # 1-2: (Full) | (SDH)
мова: англійська
тип: програмні (м'які)
формат: *.srt

Збережено оригінальні іменовані розділи, як на Blu-ray.
Info
General
Unique ID : 118556218727682816525091810012858052281 (0x593118E066CF674BC06084748B4E6EB9)
Complete name : I:\+ Фільми в HD\жахи, комедія\Gremlins. Dilogy (1984-1990) Remux 1080p [Hurtom]\Gremlins (1984) Remux 1080p 2xUkrEng Sub Eng [Hurtom].
Format :
Format version : Version 4
File size : 17.2 GiB
Duration : 1 h 46 min
Overall bit rate mode : Variable
Overall bit rate : 23.2 Mb/s
Movie name : Гремліни / Gremlins (1984) Remux 1080p 2xUkr/Eng | Sub Eng [Hurtom]
Encoded date : UTC 2020-04-18 17:05:55
Writing application : v44.0.0 ('Domino') 64-bit
Writing library : libebml v1.3.10 + v1.5.2
Cover : Yes
Attachments : cover.jpg

Video
ID : 1
Format : VC-1
Format profile : [email protected]
Codec ID : V_MS/VFW/FOURCC / WVC1
Codec ID/Hint : Microsoft
Duration : 1 h 46 min
Bit rate : 20.0 Mb/s
Width : 1 920 pixels
Height : 1 080 pixels
Display aspect ratio : 16:9
Frame rate mode : Constant
Frame rate : 23.976 (24000/1001) FPS
Color space : YUV
Chroma subsampling : 4:2:0
Bit depth : 8 bits
Scan type : Progressive
Compression mode : Lossy
Bits/(Pixel*Frame) : 0.402
Stream size : 14.8 GiB (86%)
Title : Gremlins (1984) Remux 1080p 2xUkr/Eng | Sub Eng [Hurtom]
Language : Ukrainian
Default : Yes
Forced : Yes

Audio #1
ID : 2
Format : AC-3
Format/Info : Audio Coding 3
Commercial name : Dolby Digital
Codec ID : A_AC3
Duration : 1 h 46 min
Bit rate mode : Constant
Bit rate : 192 kb/s
Channel(s) : 2 channels
Channel layout : L R
Sampling rate : 48.0 kHz
Frame rate : 31.250 FPS (1536 SPF)
Compression mode : Lossy
Stream size : 146 MiB (1%)
Title : MVO [NLO.TV] 2.0
Language : Ukrainian
Service kind : Complete Main
Default : Yes
Forced : Yes

Audio #2
ID : 3
Format : AC-3
Format/Info : Audio Coding 3
Commercial name : Dolby Digital
Codec ID : A_AC3
Duration : 1 h 46 min
Bit rate mode : Constant
Bit rate : 384 kb/s
Channel(s) : 6 channels
Channel layout : L R C LFE Ls Rs
Sampling rate : 48.0 kHz
Frame rate : 31.250 FPS (1536 SPF)
Compression mode : Lossy
Stream size : 291 MiB (2%)
Title : MVO [ІНТЕР] 5.1
Language : Ukrainian
Service kind : Complete Main
Default : No
Forced : No

Audio #3
ID : 4
Format : MLP FBA
Format/Info : Meridian Lossless Packing FBA
Commercial name : Dolby TrueHD
Codec ID : A_TRUEHD
Duration : 1 h 46 min
Bit rate mode : Variable
Bit rate : 1 554 kb/s
Maximum bit rate : 2 574 kb/s
Channel(s) : 6 channels
Channel layout : L R C LFE Ls Rs
Sampling rate : 48.0 kHz
Frame rate : 1 200.000 FPS (40 SPF)
Compression mode : Lossless
Stream size : 1.15 GiB (7%)
Title : Original TrueHD 5.1
Language : English
Default : No
Forced : No

Audio #4
ID : 5
Format : AC-3
Format/Info : Audio Coding 3
Commercial name : Dolby Digital
Codec ID : A_AC3
Duration : 1 h 46 min
Bit rate mode : Constant
Bit rate : 640 kb/s
Channel(s) : 6 channels
Channel layout : L R C LFE Ls Rs
Sampling rate : 48.0 kHz
Frame rate : 31.250 FPS (1536 SPF)
Compression mode : Lossy
Stream size : 486 MiB (3%)
Title : Original 5.1
Language : English
Service kind : Complete Main
Default : No
Forced : No

Audio #5
ID : 6
Format : AC-3
Format/Info : Audio Coding 3
Commercial name : Dolby Digital
Codec ID : A_AC3
Duration : 1 h 46 min
Bit rate mode : Constant
Bit rate : 192 kb/s
Channel(s) : 2 channels
Channel layout : L R
Sampling rate : 48.0 kHz
Frame rate : 31.250 FPS (1536 SPF)
Compression mode : Lossy
Stream size : 146 MiB (1%)
Title : Original 2.0 | Commentary by director Joe Dante, actors Phoebe Cates, Zach Galligan, Dick Miller and Howie Mandel
Language : English
Service kind : Complete Main
Default : No
Forced : No

Audio #6
ID : 7
Format : AC-3
Format/Info : Audio Coding 3
Commercial name : Dolby Digital
Codec ID : A_AC3
Duration : 1 h 46 min
Bit rate mode : Constant
Bit rate : 192 kb/s
Channel(s) : 2 channels
Channel layout : L R
Sampling rate : 48.0 kHz
Frame rate : 31.250 FPS (1536 SPF)
Compression mode : Lossy
Stream size : 146 MiB (1%)
Title : Original 2.0 | Commentary by director Joe Dante, Producer Michael Finnell and Special Effects Artist Chris Walar
Language : English
Service kind : Complete Main
Default : No
Forced : No

Text #1
ID : 8
Format : UTF-8
Codec ID : S_TEXT/UTF8
Codec ID/Info : UTF-8 Plain Text
Duration : 1 h 42 min
Bit rate : 42 b/s
Count of elements : 1035
Stream size : 32.3 KiB (0%)
Title : Eng (Full)
Language : English
Default : No
Forced : No

Text #2
ID : 9
Format : UTF-8
Codec ID : S_TEXT/UTF8
Codec ID/Info : UTF-8 Plain Text
Duration : 1 h 42 min
Bit rate : 37 b/s
Count of elements : 918
Stream size : 27.9 KiB (0%)
Title : Eng (SDH)
Language : English
Default : No
Forced : No

Menu
00:00:00.000 : en:Three Rules
00:05:36.002 : en:Wintery White
00:08:29.008 : en:Mrs. Deagle
00:13:23.136 : en:With Gerald
00:15:02.068 : en:"Gonna Like This"
00:19:46.018 : en:Bedtime Buddies
00:22:47.866 : en:Instant Menagerie
00:32:42.127 : en:Closing the Bar
00:37:58.776 : en:Hungry Mogwai
00:40:56.454 : en:Pupal State
00:44:34.171 : en:Hanson Gets the Needle
00:51:14.697 : en:Under Siege
00:54:12.416 : en:Kitchen Carnage
00:59:09.045 : en:Stripe's Plunge
01:01:39.195 : en:Skeptics
01:02:48.431 : en:Remodeling
01:05:13.409 : en:Mailbox Mischief
01:07:36.052 : en:Carolers
01:09:58.194 : en:Mayhem
01:13:08.718 : en:Hot Time at Dorry's
01:18:10.019 : en:Sad Yuletide Story
01:21:04.526 : en:Hi-Ho... to the Movies!
01:27:25.907 : en:Store Showdown
01:33:13.087 : en:Gizmo to the Rescue
01:35:07.535 : en:Stripe's Last Stand
01:38:13.054 : en:Grandpa Knows Best
01:42:08.122 : en:You Never Can Tell
Скріншоти
Гремліни 2: Нова партія / Gremlins 2: The New Batch (1990) Remux 1080p 2xUkr/Eng | Sub Eng


Гремліни 2: Нова партія / Gremlins 2: The New Batch (1990) Remux 1080p 2xUkr/Eng | Sub Eng



Український постер:

Альтернативна обкладинка:



Актори:Зак Геліган [Zach Galligan], Фібі Кейтс [Phoebe Cates], Джон Гловер [John Glover], Роберт Проскі [Robert Prosky], Крістофер Лі [Christopher Lee], Дік Міллер [Dick Miller], Роберт Пікардо [Robert Picardo], Гевіланд Моріс [Haviland Morris], Джекі Джозеф [Jackie Joseph], Гедде Ватанабе [Gedde Watanabe].

Сюжет:
Продовження культового комедійного фільму жахів 1990-х років про нашестя нахабних, смішних, дрібних чудовиськ. На цей раз картина виглядає ще епічніше, адже від навали гремлінів потерпають мешканці Нью-Йорка!

За сюжетом, Біллі Пельтцер підріс та влаштувався працювати в велику корпорацію. З ним до Нью-Йорка приїздить і його улюблений пухнастик Магвай, який знову повернувся до Біллі після смерті старого китайського чаклуна. Біллі повністю присвятив себе роботі і йому доводиться ненадовго залишити свого вихованця...


Тривалість: 01:46:26
Якість: Remux 1080p
Відео:
кодек:
розмір кадру: 1920 х 1080
бітрейт: 18,5 Mб/с

Аудіо # 1:
мова: українська
переклад: багатоголосий закадровий
кодек: 2.0
бітрейт: 192 кб/с

Аудіо # 2:
мова: українська
переклад: багатоголосий закадровий | студія "Так Треба Продакшн"
кодек: 2.0 (з 5.1)
бітрейт: 192 кб/с

Аудіо # 3:
мова: англійська
переклад: оригінал
кодек: -HD MA 5.1
бітрейт: 3870 кб/с

Аудіо # 4:
мова: англійська
переклад: оригінал
кодек: 5.1
бітрейт: 448 кб/с

Аудіо # 5:
мова: англійська
переклад: Коментарі режисера Джо Данте, актора Зака Галлігана, сценариста Чарльза С. Хааса та продюсера Майкла Фіннела
кодек: 2.0
бітрейт: 192 кб/с

Субтитри # 1-2: (Full) | (SDH)
мова: англійська
тип: програмні (м'які)
формат: *.srt

Збережено оригінальні іменовані розділи, як на Blu-ray.
Info
General
Unique ID : 244777842940042142316750227600450485832 (0xB8267F6C27D8DC2446B5313BFFBB7E48)
Complete name : I:\+ Фільми в HD\жахи, комедія\Gremlins. Dilogy (1984-1990) Remux 1080p [Hurtom]\Gremlins 2 The New Batch (1990) Remux 1080p 2xUkrEng Sub Eng [Hurtom].
Format :
Format version : Version 4
File size : 17.4 GiB
Duration : 1 h 46 min
Overall bit rate mode : Variable
Overall bit rate : 23.4 Mb/s
Movie name : Гремліни 2: Нова партія / Gremlins 2: The New Batch (1990) Remux 1080p 2xUkr/Eng | Sub Eng [Hurtom]
Encoded date : UTC 2020-04-27 21:08:25
Writing application : v44.0.0 ('Domino') 64-bit
Writing library : libebml v1.3.10 + v1.5.2
Cover : Yes
Attachments : cover.jpg

Video
ID : 1
Format : AVC
Format/Info : Advanced Video Codec
Format profile : [email protected]
Format settings : CABAC / 2 Ref Frames
Format settings, CABAC : Yes
Format settings, Reference fra : 2 frames
Codec ID : V_MPEG4/ISO/AVC
Duration : 1 h 46 min
Bit rate mode : Variable
Bit rate : 18.5 Mb/s
Width : 1 920 pixels
Height : 1 080 pixels
Display aspect ratio : 16:9
Frame rate mode : Constant
Frame rate : 23.976 (24000/1001) FPS
Color space : YUV
Chroma subsampling : 4:2:0
Bit depth : 8 bits
Scan type : Progressive
Bits/(Pixel*Frame) : 0.371
Stream size : 13.7 GiB (79%)
Title : Gremlins 2: The New Batch (1990) Remux 1080p 2xUkr/Eng | Sub Eng [Hurtom]
Language : Ukrainian
Default : Yes
Forced : Yes

Audio #1
ID : 2
Format : AC-3
Format/Info : Audio Coding 3
Commercial name : Dolby Digital
Codec ID : A_AC3
Duration : 1 h 46 min
Bit rate mode : Constant
Bit rate : 192 kb/s
Channel(s) : 2 channels
Channel layout : L R
Sampling rate : 48.0 kHz
Frame rate : 31.250 FPS (1536 SPF)
Compression mode : Lossy
Stream size : 146 MiB (1%)
Title : MVO [NLO.TV] 2.0
Language : Ukrainian
Service kind : Complete Main
Default : Yes
Forced : Yes

Audio #2
ID : 3
Format : AC-3
Format/Info : Audio Coding 3
Commercial name : Dolby Digital
Codec ID : A_AC3
Duration : 1 h 46 min
Bit rate mode : Constant
Bit rate : 192 kb/s
Channel(s) : 2 channels
Channel layout : L R
Sampling rate : 48.0 kHz
Frame rate : 31.250 FPS (1536 SPF)
Compression mode : Lossy
Stream size : 146 MiB (1%)
Title : MVO [ІНТЕР] 2.0
Language : Ukrainian
Service kind : Complete Main
Default : No
Forced : No

Audio #3
ID : 4
Format : XLL
Format/Info : Digital Theater Systems
Commercial name : -HD Master Audio
Codec ID : A_DTS
Duration : 1 h 46 min
Bit rate mode : Variable
Bit rate : 3 870 kb/s
Channel(s) : 6 channels
Channel layout : C L R Ls Rs LFE
Sampling rate : 48.0 kHz
Frame rate : 93.750 FPS (512 SPF)
Bit depth : 24 bits
Compression mode : Lossless
Stream size : 2.88 GiB (17%)
Title : Original -HD MA 5.1
Language : English
Default : No
Forced : No

Audio #4
ID : 5
Format : AC-3
Format/Info : Audio Coding 3
Commercial name : Dolby Digital
Codec ID : A_AC3
Duration : 1 h 46 min
Bit rate mode : Constant
Bit rate : 448 kb/s
Channel(s) : 6 channels
Channel layout : L R C LFE Ls Rs
Sampling rate : 48.0 kHz
Frame rate : 31.250 FPS (1536 SPF)
Compression mode : Lossy
Delay relative to video : 2 s 0 ms
Stream size : 341 MiB (2%)
Title : Original 5.1
Language : English
Service kind : Complete Main
Default : No
Forced : No

Audio #5
ID : 6
Format : AC-3
Format/Info : Audio Coding 3
Commercial name : Dolby Digital
Codec ID : A_AC3
Duration : 1 h 46 min
Bit rate mode : Constant
Bit rate : 192 kb/s
Channel(s) : 2 channels
Channel layout : L R
Sampling rate : 48.0 kHz
Frame rate : 31.250 FPS (1536 SPF)
Compression mode : Lossy
Stream size : 146 MiB (1%)
Title : Original 2.0 | Commentary by director Joe Dante, actor Zach Galligan, writer Charles S. Haas and producer Michael Finnell
Language : English
Service kind : Complete Main
Default : No
Forced : No

Text #1
ID : 7
Format : UTF-8
Codec ID : S_TEXT/UTF8
Codec ID/Info : UTF-8 Plain Text
Duration : 1 h 45 min
Bit rate : 52 b/s
Count of elements : 1043
Stream size : 40.5 KiB (0%)
Title : Eng (Full)
Default : No
Forced : No

Text #2
ID : 8
Format : UTF-8
Codec ID : S_TEXT/UTF8
Codec ID/Info : UTF-8 Plain Text
Duration : 1 h 46 min
Bit rate : 53 b/s
Count of elements : 1100
Stream size : 41.9 KiB (0%)
Title : Eng (SDH)
Language : English
Default : No
Forced : No

Menu
00:00:00.000 : en:Chinatown Dirty Work
00:05:59.934 : en:Gizmo Snatched
00:07:47.067 : en:New York; Clamp Centre
00:13:12.601 : en:Grandpa Fred
00:15:28.935 : en:Splice O'Life Inc.
00:18:40.102 : en:Rescuing Gizmo
00:22:42.070 : en:Clamp Reviews the Troops
00:24:23.604 : en:Marla Moves...on Billy
00:27:29.238 : en:Gizmo Gets Wet
00:32:58.905 : en:Canadian Restaurant
00:35:19.439 : en:The Futtermans
00:38:50.606 : en:Furry Things in the Snack Bar
00:41:59.073 : en:Morning Hatching
00:44:58.607 : en:Gremlins in Control
00:47:53.074 : en:Microwave Marge
00:51:47.942 : en:Kate's Wild Ride
00:52:25.776 : en:Clamp's Visitor
00:57:47.744 : en:Between Floors
00:58:34.445 : en:Mutation Menagerie
01:02:56.946 : en:Gremlins Spree
01:04:39.413 : en:Futterman Goes Batty
01:06:40.446 : en:Technical Difficulties
01:10:31.113 : en:Bizarre Science
01:13:56.080 : en:Grandpa Fred on the Air
01:18:58.914 : en:Clamp's Chamber
01:21:12.414 : en:Brain Gremlin
01:23:26.282 : en:Dentist's Office; Spider's Web
01:27:45.083 : en:New York; New York...and Other Homages
01:31:06.450 : en:Phoning in an Answer
01:34:47.450 : en:Cleanup Crew
01:39:50.450 : en:Forrster's Bride
01:41:34.583 : en:End Credits
Скріншоти
Джерело: &

Висловлюю подяку п. YureK, п. Givi, п. drakon87 та п. -_-B_Е_N_D_E_R-_- за українські доріжки, п. hellforces за українізацію постерів.
Особиста оцінка: 10 - без зайвих вагань рекомендую всім!


Золотий реліз (завантажене не впливає на рейтинг)
 Трекер:    Зареєстрований   

Завантажити / скачати фільм українською



відео для новачків



 Зареєстрований:   2020-04-27 23:33
 Розмір:   34.6 GB 
 Оцінка фільму:   9.9/10 (Голосів: 17)
   
MakRA 
VIP


З нами з: 10.11.18
Востаннє: 28.01.21
Повідомлень: 1168

2020-04-18 19:35  
Реліз оновлено 18.04.2020
Додано доріжку від NLO.TV до першої частини. Додано іменовані розділи та SDH субтитри до обох фільмів.


Додано через 6 хвилин 47 секунд:

Прохання до пана igor911 додати, будь ласка, посилання "Всі актуальні релізи фільмів Гремліни", оскільки дилогія не вискакує під спойлером "Інші релізи"

MakRA 
VIP


З нами з: 10.11.18
Востаннє: 28.01.21
Повідомлень: 1168

2020-04-27 23:38  
Реліз оновлено 28.04.2020
До другої частини додано доріжку від NLO.TV, псевдо-доріжку 5.1 від ІНТЕР оновлено на 2.0 стерео


Додано через 6 хвилин 47 секунд:

[email protected] 
VIP


З нами з: 24.03.17
Востаннє: 27.01.21
Повідомлень: 658

2021-01-09 18:10  
Фільм дитинства!!!
Ваш часовий пояс: GMT + 2 Години

Нова тема   Відповісти