Панда Кунг-фу: Трилогія / Kung Fu Panda: Trilogy (2008-2016) 1080p H.265 Ukr/Eng | Sub 2xUkr/Eng

Нові коментарі

Нова тема   Відповісти
Автор Повідомлення
Anonymous 







2019-12-07 04:59  
Панда Кунг-фу: Трилогія / Kung Fu Panda: Trilogy (2008-2016) 1080p H.265 Ukr/Eng | Sub 2xUkr/Eng

Панда Кунг-фу: Трилогія / Kung Fu Panda: Trilogy (2008-2016) 1080p H.265 Ukr/Eng | Sub 2xUkr/Eng

1. 2. 3.

1. Панда Кунг-Фу / Kung Fu Panda (2008) 1080p H.265 2xUkr/Eng | Sub 2xUkr/Eng
Панда Кунг-Фу / Kung Fu Panda (2008) 1080p H.265 2xUkr/Eng | Sub 2xUkr/Eng

Панда Кунг-фу: Трилогія / Kung Fu Panda: Trilogy (2008-2016) 1080p H.265 Ukr/Eng | Sub 2xUkr/Eng


Жанр: анімація, пригодницький, комедія
Країна: США
Кінокомпанія: DreamWorks Animation
Режисер: Марк Осборн, Джон Стівенсон
Актори: Джек Блек, Дастін Хоффман, Анджеліна Джолі, Йен МакШейн, Джекі Чан, Сет Роген, Люсі Лью

Сюжет:
Порятунок Долини Миру і всіх її мешканців від непереможного і безжального майстра Тай Лунга повинен лягти на плечі Воїна Дракона, Обраного серед кращих з кращих, яким стає... незграбний, ледачий і вічно голодний панда По. Його чекає довга і важка дорога до вершин майстерності Кунг-фу пліч-о-пліч з легендарними воїнами: Тигрицею, Мавпою, Богомолом, Гадюкою і Журавлем. По відкриє таємницю стародавнього Сувою і стане Воїном Дракона лише в тому випадку, якщо зможе повірити в себе.

Тривалість: 01:32:08
Якість:

Відео:
кодек: H.265 (HEVC)
розмір кадру: 1920 x 816
бітрейт: 4 681 кб/с
бітова глибина: 10 біт

Увага! Перед завантаженням переконайтесь, що ваш пристрій відтворення (та/або ПЗ) підтримує H.265 (HEVC)

Аудіо # 1:
мова: українська
озвучення: професійне дубльоване
кодек: AC-3 5.1
бітрейт: 640 кб/с

Аудіо # 2:
мова: українська
озвучення: багатоголосе закадрове
кодек: AC-3 2.0
бітрейт: 192 кб/с

Аудіо # 3:
мова: англійська
озвучення: оригінал
кодек: 5.1
бітрейт: 1511 кб/с

Аудіо # 4:
мова: англійська
озвучення: оригінал | Commentary track featuring directors Mark Osborne and John
кодек: AC-3 2.0
бітрейт: 192 кб/с

Субтитри # 1-2: (Full from Netflix, Full from BD)
мова: українська
тип: програмні (м'які)
формат: *.srt

Субтитри # 3-4: (Full, For commentary track featuring directors Mark Osborne and John Stevenson)
мова: англійська
тип: програмні (м'які)
формат: *.srt


Інформація про файл
Код:
General
Unique ID                                : 132026102107883863893037440986313286190 (0x63534D66BEFBF3ECBBEDA2CA2172622E)
Complete name                            : 1. Kung Fu Panda (2008) 1080p H.265 [2xUKR_ENG] [Hurtom].
Format                                   :
Format version                           : Version 4
File size                                : 4.65 GiB
Duration                                 : 1 h 32 min
Overall bit rate                         : 7 219 kb/s
Movie name                               : Кунг-Фу Панда / Kung Fu Panda (2008)
Encoded date                             : UTC 2021-02-12 22:59:20
Writing application                      : v20.0.0 ('I Am The Sun') 64-bit
Writing library                          : libebml v1.3.5 + v1.4.8
Cover                                    : Yes
Attachments                              : Cover.jpg

Video
ID                                       : 1
Format                                   : HEVC
Format/Info                              : High Efficiency Video Coding
Format profile                           : Main [email protected]@High
Codec ID                                 : V_MPEGH/ISO/HEVC
Duration                                 : 1 h 32 min
Bit rate                                 : 4 681 kb/s
Width                                    : 1 920 pixels
Height                                   : 816 pixels
Display aspect ratio                     : 2.35:1
Frame rate mode                          : Constant
Frame rate                               : 23.976 (24000/1001) FPS
Color space                              : YUV
Chroma subsampling                       : 4:2:0
Bit depth                                : 10 bits
Bits/(Pixel*Frame)                       : 0.125
Stream size                              : 3.01 GiB (65%)
Title                                    : Кунг-Фу Панда / Kung Fu Panda (2008)
Writing library                          : x265 2.8+74-fd517ae68f93:[Windows][GCC 7.3.0][64 bit] 10bit
Encoding settings                        : cpuid=1111039 / frame-threads=13 / numa-pools=12 / wpp / no-pmode / no-pme / no-psnr / no-ssim / log-level=3 / input-csp=1 / input-res=1920x816 / interlace=0 / total-frames=0 / level-idc=41 / high-tier=1 / uhd-bd=0 / ref=5 / allow-non-conformance / no-repeat-headers / annexb / no-aud / no-hrd / info / hash=0 / no-temporal-layers / open-gop / min-keyint=24 / keyint=240 / gop-lookahead=0 / bframes=9 / b-adapt=2 / b-pyramid / bframe-bias=0 / rc-lookahead=60 / lookahead-slices=4 / scenecut=40 / radl=0 / no-intra-refresh / ctu=32 / min-cu-size=8 / rect / amp / max-tu-size=32 / tu-inter-depth=4 / tu-intra-depth=4 / limit-tu=1 / rdoq-level=2 / dynamic-rd=0.00 / no-ssim-rd / signhide / no-tskip / nr-intra=0 / nr-inter=0 / no-constrained-intra / no-strong-intra-smoothing / max-merge=4 / limit-refs=2 / limit-modes / me=3 / subme=7 / merange=57 / temporal-mvp / weightp / weightb / no-analyze-src-pics / deblock=-3:-3 / no-sao / no-sao-non-deblock / rd=6 / no-early-skip / no-rskip / no-fast-intra / no-tskip-fast / no-cu-lossless / no-b-intra / no-splitrd-skip / rdpenalty=0 / psy-rd=2.00 / psy-rdoq=1.00 / no-rd-refine / no-lossless / cbqpoffs=0 / crqpoffs=0 / rc=crf / crf=19.0 / qcomp=0.65 / qpstep=1 / stats-write=0 / stats-read=0 / vbv-maxrate=50000 / vbv-bufsize=50000 / vbv-init=0.9 / crf-max=30.0 / crf-min=0.0 / ipratio=1.40 / pbratio=1.30 / aq-mode=1 / aq-strength=0.90 / no-cutree / zone-count=0 / no-strict-cbr / qg-size=32 / no-rc-grain / qpmax=69 / qpmin=0 / no-const-vbv / sar=1 / overscan=0 / videoformat=5 / range=0 / colorprim=1 / transfer=1 / colormatrix=1 / chromaloc=0 / display-window=0 / max-cll=0,0 / min-luma=0 / max-luma=1023 / log2-max-poc-lsb=8 / vui-timing-info / vui-hrd-info / slices=1 / no-opt-qp-pps / no-opt-ref-list-length-pps / no-multi-pass-opt-rps / scenecut-bias=0.05 / no-opt-cu-delta-qp / no-aq-motion / no-hdr / no-hdr-opt / no-dhdr10-opt / no-idr-recovery-sei / analysis-reuse-level=5 / scale-factor=0 / refine-intra=0 / refine-inter=0 / refine-mv=0 / no-limit-sao / ctu-info=0 / no-lowpass-dct / refine-mv-type=0 / copy-pic=1 / max-ausize-factor=1.0 / no-dynamic-refine / no-single-sei
Default                                  : Yes
Forced                                   : No
Color range                              : Limited
Color primaries                          : BT.709
Transfer characteristics                 : BT.709
Matrix coefficients                      : BT.709

Audio #1
ID                                       : 2
Format                                   : AC-3
Format/Info                              : Audio Coding 3
Commercial name                          : Dolby Digital
Codec ID                                 : A_AC3
Duration                                 : 1 h 32 min
Bit rate mode                            : Constant
Bit rate                                 : 640 kb/s
Channel(s)                               : 6 channels
Channel layout                           : L R C LFE Ls Rs
Sampling rate                            : 48.0 kHz
Frame rate                               : 31.250 FPS (1536 SPF)
Compression mode                         : Lossy
Stream size                              : 422 MiB (9%)
Title                                    : AC-3 / 5.1 Ch / 640 kbps / DUB / Blu-Ray
Language                                 : Ukrainian
Service kind                             : Complete Main
Default                                  : Yes
Forced                                   : Yes

Audio #2
ID                                       : 3
Format                                   : AC-3
Format/Info                              : Audio Coding 3
Commercial name                          : Dolby Digital
Codec ID                                 : A_AC3
Duration                                 : 1 h 32 min
Bit rate mode                            : Constant
Bit rate                                 : 192 kb/s
Channel(s)                               : 2 channels
Channel layout                           : L R
Sampling rate                            : 48.0 kHz
Frame rate                               : 31.250 FPS (1536 SPF)
Compression mode                         : Lossy
Stream size                              : 127 MiB (3%)
Title                                    : AC-3 / 2.0 Ch / 192 kbps / MVO / Інтер
Language                                 : Ukrainian
Service kind                             : Complete Main
Default                                  : No
Forced                                   : No

Audio #3
ID                                       : 4
Format                                   :
Format/Info                              : Digital Theater Systems
Codec ID                                 : A_DTS
Duration                                 : 1 h 32 min
Bit rate mode                            : Constant
Bit rate                                 : 1 510 kb/s
Channel(s)                               : 6 channels
Channel layout                           : C L R Ls Rs LFE
Sampling rate                            : 48.0 kHz
Frame rate                               : 93.750 FPS (512 SPF)
Bit depth                                : 24 bits
Compression mode                         : Lossy
Stream size                              : 995 MiB (21%)
Title                                    : / 5.1 Ch / 1509 kbps / Original
Language                                 : English
Default                                  : No
Forced                                   : No

Audio #4
ID                                       : 5
Format                                   : AC-3
Format/Info                              : Audio Coding 3
Commercial name                          : Dolby Digital
Codec ID                                 : A_AC3
Duration                                 : 1 h 32 min
Bit rate mode                            : Constant
Bit rate                                 : 192 kb/s
Channel(s)                               : 2 channels
Channel layout                           : L R
Sampling rate                            : 48.0 kHz
Frame rate                               : 31.250 FPS (1536 SPF)
Compression mode                         : Lossy
Stream size                              : 127 MiB (3%)
Title                                    : AC-3 / 2.0 Ch / 192 kbps / Original / Commentary track featuring directors Mark Osborne and John Stevenson
Language                                 : English
Service kind                             : Complete Main
Default                                  : No
Forced                                   : No

Text #1
ID                                       : 6
Format                                   : UTF-8
Codec ID                                 : S_TEXT/UTF8
Codec ID/Info                            : UTF-8 Plain Text
Duration                                 : 1 h 31 min
Bit rate                                 : 66 b/s
Count of elements                        : 951
Stream size                              : 44.2 KiB (0%)
Title                                    : Full from Netflix
Language                                 : Ukrainian
Default                                  : No
Forced                                   : No

Text #2
ID                                       : 7
Format                                   : UTF-8
Codec ID                                 : S_TEXT/UTF8
Codec ID/Info                            : UTF-8 Plain Text
Duration                                 : 1 h 31 min
Bit rate                                 : 63 b/s
Count of elements                        : 946
Stream size                              : 42.4 KiB (0%)
Title                                    : Full from BD
Language                                 : Ukrainian
Default                                  : No
Forced                                   : No

Text #3
ID                                       : 8
Format                                   : UTF-8
Codec ID                                 : S_TEXT/UTF8
Codec ID/Info                            : UTF-8 Plain Text
Duration                                 : 1 h 25 min
Bit rate                                 : 55 b/s
Count of elements                        : 979
Stream size                              : 34.6 KiB (0%)
Title                                    : Full
Language                                 : English
Default                                  : No
Forced                                   : No

Text #4
ID                                       : 9
Format                                   : UTF-8
Codec ID                                 : S_TEXT/UTF8
Codec ID/Info                            : UTF-8 Plain Text
Duration                                 : 1 h 31 min
Bit rate                                 : 107 b/s
Count of elements                        : 1590
Stream size                              : 72.2 KiB (0%)
Title                                    : For commentary track featuring directors Mark Osborne and John Stevenson
Language                                 : English
Default                                  : No
Forced                                   : No

Menu
00:00:00.000                             : en:Chapter 1
00:02:31.401                             : en:Chapter 2
00:05:17.025                             : en:Chapter 3
00:07:58.853                             : en:Chapter 4
00:10:41.891                             : en:Chapter 5
00:16:39.332                             : en:Chapter 6
00:19:28.501                             : en:Chapter 7
00:22:41.610                             : en:Chapter 8
00:26:19.828                             : en:Chapter 9
00:31:13.830                             : en:Chapter 10
00:35:26.124                             : en:Chapter 11
00:38:35.563                             : en:Chapter 12
00:42:34.719                             : en:Chapter 13
00:45:45.910                             : en:Chapter 14
00:51:29.712                             : en:Chapter 15
00:56:29.052                             : en:Chapter 16
00:58:48.358                             : en:Chapter 17
01:02:06.222                             : en:Chapter 18
01:06:52.842                             : en:Chapter 19
01:09:52.897                             : en:Chapter 20
01:14:05.483                             : en:Chapter 21
01:20:04.466                             : en:Chapter 22
01:23:11.987                             : en:Chapter 23
Світлини



2. Панда Кунг-Фу 2 / Kung Fu Panda 2 (2011) 1080p H.265 Ukr/Eng | Sub 2xUkr/Eng
Панда Кунг-Фу 2 / Kung Fu Panda 2 (2011) 1080p H.265 Ukr/Eng | Sub 2xUkr/Eng

Панда Кунг-фу: Трилогія / Kung Fu Panda: Trilogy (2008-2016) 1080p H.265 Ukr/Eng | Sub 2xUkr/Eng


Жанр: анімація, екшн, пригодницький
Країна: США
Кінокомпанія: DreamWorks Animation
Режисер: Дженніфер Йюх
Актори: Анджеліна Джолі, Ґері Олдмен, Сет Роген, Жан-Клод Ван Дамм, Джек Блек, Джекі Чан, Джастін Хоффман, Девід Крос, Люсі Лью, Мішель Йео

Ролі озвучують: По – Юрій Ребрик. Майстер Шіфу – Богдан Ступка. Тато – Микола Луценко. Тигриця – Катерина Коновалова. Мавпа – Андрій Самінін. Журавель – Володимир Голосняк. Гадюка – Ірина Ткаленко. Богомол – Анатолій Пашнін.

Сюжет:
Загроза нависла над самим мистецтвом кунг-фу – хто ж стане на його захист, як не славетний учень По, який удосконалив ведення бою у стилі панди. Пророцтво героїчного майбутнього буде справджуватись, і гарантує те саме, що і перша частина, але всього набагато більше: більше прийомчиків, більше пельменів, ще більше пузо.

Тривалість: 01:30:23
Якість:

Відео:
кодек: H.265 (HEVC)
розмір кадру: 1920 x 816
бітрейт: 4 935 кб/с
бітова глибина: 10 біт

Увага! Перед завантаженням переконайтесь, що ваш пристрій відтворення (та/або ПЗ) підтримує H.265 (HEVC)

Аудіо # 1:
мова: українська
озвучення: професійне дубльоване
кодек: AC-3 5.1
бітрейт: 640 кб/с

Аудіо # 2:
мова: англійська
озвучення: оригінал
кодек: AC-3 5.1
бітрейт: 640 кб/с

Аудіо # 3:
мова: англійська
озвучення: оригінал | коментарі
кодек: AC-3 2.0
бітрейт: 224 кб/с

Субтитри # 1-2: (Full from Netflix, Full from BD)
мова: українська
тип: програмні (м'які)
формат: *.srt

Субтитри # 3-4: (Full, Commentary)
мова: англійська
тип: програмні (м'які)
формат: *.srt


Інформація про файл
Код:
General
Unique ID                                : 233381500255449555613143777788976037337 (0xAF93A458DA87592313AE1FB616D5FDD9)
Complete name                            : 2. Kung Fu Panda 2 (2011) 1080p H.265 [UKR_ENG] [Hurtom].
Format                                   :
Format version                           : Version 4
File size                                : 4.07 GiB
Duration                                 : 1 h 30 min
Overall bit rate                         : 6 444 kb/s
Movie name                               : Панда Кунг-Фу 2 / Kung Fu Panda 2 (2011)
Encoded date                             : UTC 2021-02-12 23:05:55
Writing application                      : v20.0.0 ('I Am The Sun') 64-bit
Writing library                          : libebml v1.3.5 + v1.4.8
Cover                                    : Yes
Attachments                              : Cover.jpg

Video
ID                                       : 1
Format                                   : HEVC
Format/Info                              : High Efficiency Video Coding
Format profile                           : Main [email protected]@High
Codec ID                                 : V_MPEGH/ISO/HEVC
Duration                                 : 1 h 30 min
Bit rate                                 : 4 935 kb/s
Width                                    : 1 920 pixels
Height                                   : 816 pixels
Display aspect ratio                     : 2.35:1
Frame rate mode                          : Constant
Frame rate                               : 23.976 (24000/1001) FPS
Color space                              : YUV
Chroma subsampling                       : 4:2:0
Bit depth                                : 10 bits
Bits/(Pixel*Frame)                       : 0.131
Stream size                              : 3.12 GiB (77%)
Title                                    : Панда Кунг-Фу 2 / Kung Fu Panda 2 (2011)
Writing library                          : x265 2.8+74-fd517ae68f93:[Windows][GCC 7.3.0][64 bit] 10bit
Encoding settings                        : cpuid=1111039 / frame-threads=13 / numa-pools=12 / wpp / no-pmode / no-pme / no-psnr / no-ssim / log-level=3 / input-csp=1 / input-res=1920x816 / interlace=0 / total-frames=0 / level-idc=41 / high-tier=1 / uhd-bd=0 / ref=5 / allow-non-conformance / no-repeat-headers / annexb / no-aud / no-hrd / info / hash=0 / no-temporal-layers / open-gop / min-keyint=24 / keyint=240 / gop-lookahead=0 / bframes=9 / b-adapt=2 / b-pyramid / bframe-bias=0 / rc-lookahead=60 / lookahead-slices=4 / scenecut=40 / radl=0 / no-intra-refresh / ctu=32 / min-cu-size=8 / rect / amp / max-tu-size=32 / tu-inter-depth=4 / tu-intra-depth=4 / limit-tu=1 / rdoq-level=2 / dynamic-rd=0.00 / no-ssim-rd / signhide / no-tskip / nr-intra=0 / nr-inter=0 / no-constrained-intra / no-strong-intra-smoothing / max-merge=4 / limit-refs=2 / limit-modes / me=3 / subme=7 / merange=57 / temporal-mvp / weightp / weightb / no-analyze-src-pics / deblock=-3:-3 / no-sao / no-sao-non-deblock / rd=6 / no-early-skip / no-rskip / no-fast-intra / no-tskip-fast / no-cu-lossless / no-b-intra / no-splitrd-skip / rdpenalty=0 / psy-rd=2.00 / psy-rdoq=1.00 / no-rd-refine / no-lossless / cbqpoffs=0 / crqpoffs=0 / rc=crf / crf=19.5 / qcomp=0.65 / qpstep=1 / stats-write=0 / stats-read=0 / vbv-maxrate=50000 / vbv-bufsize=50000 / vbv-init=0.9 / crf-max=30.0 / crf-min=0.0 / ipratio=1.40 / pbratio=1.30 / aq-mode=1 / aq-strength=0.90 / no-cutree / zone-count=0 / no-strict-cbr / qg-size=32 / no-rc-grain / qpmax=69 / qpmin=0 / no-const-vbv / sar=1 / overscan=0 / videoformat=5 / range=0 / colorprim=2 / transfer=2 / colormatrix=2 / chromaloc=0 / display-window=0 / max-cll=0,0 / min-luma=0 / max-luma=1023 / log2-max-poc-lsb=8 / vui-timing-info / vui-hrd-info / slices=1 / no-opt-qp-pps / no-opt-ref-list-length-pps / no-multi-pass-opt-rps / scenecut-bias=0.05 / no-opt-cu-delta-qp / no-aq-motion / no-hdr / no-hdr-opt / no-dhdr10-opt / no-idr-recovery-sei / analysis-reuse-level=5 / scale-factor=0 / refine-intra=0 / refine-inter=0 / refine-mv=0 / no-limit-sao / ctu-info=0 / no-lowpass-dct / refine-mv-type=0 / copy-pic=1 / max-ausize-factor=1.0 / no-dynamic-refine / no-single-sei
Default                                  : Yes
Forced                                   : No

Audio #1
ID                                       : 2
Format                                   : AC-3
Format/Info                              : Audio Coding 3
Commercial name                          : Dolby Digital
Codec ID                                 : A_AC3
Duration                                 : 1 h 30 min
Bit rate mode                            : Constant
Bit rate                                 : 640 kb/s
Channel(s)                               : 6 channels
Channel layout                           : L R C LFE Ls Rs
Sampling rate                            : 48.0 kHz
Frame rate                               : 31.250 FPS (1536 SPF)
Compression mode                         : Lossy
Stream size                              : 414 MiB (10%)
Title                                    : AC-3 / 5.1 Ch / 640 kbps / DUB / Blu-Ray
Language                                 : Ukrainian
Service kind                             : Complete Main
Default                                  : Yes
Forced                                   : Yes

Audio #2
ID                                       : 3
Format                                   : AC-3
Format/Info                              : Audio Coding 3
Commercial name                          : Dolby Digital
Codec ID                                 : A_AC3
Duration                                 : 1 h 30 min
Bit rate mode                            : Constant
Bit rate                                 : 640 kb/s
Channel(s)                               : 6 channels
Channel layout                           : L R C LFE Ls Rs
Sampling rate                            : 48.0 kHz
Frame rate                               : 31.250 FPS (1536 SPF)
Compression mode                         : Lossy
Stream size                              : 414 MiB (10%)
Title                                    : AC-3 / 5.1 Ch / 640 kbps / Original
Language                                 : English
Service kind                             : Complete Main
Default                                  : No
Forced                                   : No

Audio #3
ID                                       : 4
Format                                   : AC-3
Format/Info                              : Audio Coding 3
Commercial name                          : Dolby Digital
Codec ID                                 : A_AC3
Duration                                 : 1 h 30 min
Bit rate mode                            : Constant
Bit rate                                 : 224 kb/s
Channel(s)                               : 2 channels
Channel layout                           : L R
Sampling rate                            : 48.0 kHz
Frame rate                               : 31.250 FPS (1536 SPF)
Compression mode                         : Lossy
Stream size                              : 145 MiB (3%)
Title                                    : AC-3 / 2.0 Ch / 224 kbps / Original / Commentary
Language                                 : English
Service kind                             : Complete Main
Default                                  : No
Forced                                   : No

Text #1
ID                                       : 5
Format                                   : UTF-8
Codec ID                                 : S_TEXT/UTF8
Codec ID/Info                            : UTF-8 Plain Text
Duration                                 : 1 h 30 min
Bit rate                                 : 62 b/s
Count of elements                        : 901
Stream size                              : 41.5 KiB (0%)
Title                                    : Full from Netflix
Language                                 : Ukrainian
Default                                  : No
Forced                                   : No

Text #2
ID                                       : 6
Format                                   : UTF-8
Codec ID                                 : S_TEXT/UTF8
Codec ID/Info                            : UTF-8 Plain Text
Duration                                 : 1 h 30 min
Bit rate                                 : 60 b/s
Count of elements                        : 873
Stream size                              : 39.8 KiB (0%)
Title                                    : Full from BD
Language                                 : Ukrainian
Default                                  : No
Forced                                   : No

Text #3
ID                                       : 7
Format                                   : UTF-8
Codec ID                                 : S_TEXT/UTF8
Codec ID/Info                            : UTF-8 Plain Text
Duration                                 : 1 h 20 min
Bit rate                                 : 47 b/s
Count of elements                        : 870
Stream size                              : 28.3 KiB (0%)
Title                                    : Full
Language                                 : English
Default                                  : No
Forced                                   : No

Text #4
ID                                       : 8
Format                                   : UTF-8
Codec ID                                 : S_TEXT/UTF8
Codec ID/Info                            : UTF-8 Plain Text
Duration                                 : 1 h 30 min
Bit rate                                 : 126 b/s
Count of elements                        : 1630
Stream size                              : 83.5 KiB (0%)
Title                                    : Commentary
Language                                 : English
Default                                  : No
Forced                                   : No

Menu
00:00:00.000                             : en:Chapter 1
00:03:54.276                             : en:Chapter 2
00:10:35.343                             : en:Chapter 3
00:16:09.385                             : en:Chapter 4
00:21:15.774                             : en:Chapter 5
00:29:56.628                             : en:Chapter 6
00:36:53.878                             : en:Chapter 7
00:41:14.180                             : en:Chapter 8
00:49:44.815                             : en:Chapter 9
00:54:06.827                             : en:Chapter 10
00:58:54.781                             : en:Chapter 11
01:05:09.239                             : en:Chapter 12
01:11:43.799                             : en:Chapter 13
01:15:31.902                             : en:Chapter 14
01:21:15.871                             : en:Chapter 15
Світлини



3. Панда Кунг-Фу 3 / Kung Fu Panda 3 (2016) 1080p H.265 Ukr/Eng | Sub Ukr/Eng
Панда Кунг-Фу 3 / Kung Fu Panda 3 (2016) 1080p H.265 Ukr/Eng | Sub Ukr/Eng

Панда Кунг-фу: Трилогія / Kung Fu Panda: Trilogy (2008-2016) 1080p H.265 Ukr/Eng | Sub 2xUkr/Eng


Жанр: анімація, комедія, пригоди, екшн
Країна: США
Кінокомпанія: DreamWorks Animation
Режисер: Дженніфер Ю-Нельсон, Алессандро Карлоні
Актори: Джек Блек, Анджеліна Джолі, Брайан Кренстон, Сет Роґен, Люсі Л'ю, Дастін Гоффман, Девід Кросс, Кейт Гадсон, Джонатан Кімбол Сіммонс, Джекі Чан

Сюжет:
В 2016 році на екрани повертаються герої одного з найуспішніших світових анімаційних проектів – в прокат виходить найкрутіша пригодницька комедія "Кунг-фу Панда 3".
Батько Пo, якого давно вважали зниклим, раптово повертається і разом із сином рушає до таємного пандячого раю, де на них чекає зустріч з багатьма новими кумедними героями. Втім, коли злодій з надприродними здібностями на ім’я Kai починає перемагати майстрів кунг-фу по всьому Китаю, Пo змушений вчинити неможливе – організувати вишкіл цілого селища, населеного його веселими вайлуватими братами, аби перетворити їх на ідеальний гурт "Кунг-Фу Панди"!

Тривалість: 01:34:54
Якість:

Відео:
кодек: H.265 (HEVC)
розмір кадру: 1920 x 816
бітрейт: 6 493 кб/с
бітова глибина: 10 біт

Увага! Перед завантаженням переконайтесь, що ваш пристрій відтворення (та/або ПЗ) підтримує H.265 (HEVC)

Аудіо # 1:
мова: українська
озвучення: професійне дубльоване
кодек: AC-3 5.1
бітрейт: 448 кб/с

Аудіо # 2:
мова: англійська
озвучення: оригінал
кодек: -ES 5.1
бітрейт: 1510 кб/с

Аудіо # 3:
мова: англійська
озвучення: оригінал | коментарі
кодек: AC-3 2.0
бітрейт: 192 кб/с

Субтитри # 1-2: (Forced, Full from iTunes)
мова: українська
тип: програмні (м'які)
формат: *.srt

Субтитри # 3-5: (Full, SDH, SDH-Colored)
мова: англійська
тип: програмні (м'які)
формат: *.srt


Інформація про файл
Код:
General
Unique ID                                : 269396545363204113818507391472406329408 (0xCAABE32A37D4AFAE1306B6F2C0FF7840)
Complete name                            : 3. Kung Fu Panda 3 (2016) 1080p H.265 [UKR_ENG] [Hurtom].
Format                                   :
Format version                           : Version 4
File size                                : 5.73 GiB
Duration                                 : 1 h 34 min
Overall bit rate                         : 8 647 kb/s
Movie name                               : Панда Кунг-Фу 3 / Kung Fu Panda 3 (2016)
Encoded date                             : UTC 2021-02-12 23:12:10
Writing application                      : v20.0.0 ('I Am The Sun') 64-bit
Writing library                          : libebml v1.3.5 + v1.4.8
Cover                                    : Yes
Attachments                              : Cover.jpg

Video
ID                                       : 1
Format                                   : HEVC
Format/Info                              : High Efficiency Video Coding
Format profile                           : Main [email protected]@High
Codec ID                                 : V_MPEGH/ISO/HEVC
Duration                                 : 1 h 34 min
Bit rate                                 : 6 493 kb/s
Width                                    : 1 920 pixels
Height                                   : 816 pixels
Display aspect ratio                     : 2.35:1
Frame rate mode                          : Constant
Frame rate                               : 23.976 (24000/1001) FPS
Color space                              : YUV
Chroma subsampling                       : 4:2:0
Bit depth                                : 10 bits
Bits/(Pixel*Frame)                       : 0.173
Stream size                              : 4.30 GiB (75%)
Title                                    : Панда Кунг-Фу 3 / Kung Fu Panda 3 (2016)
Writing library                          : x265 2.8+74-fd517ae68f93:[Windows][GCC 7.3.0][64 bit] 10bit
Encoding settings                        : cpuid=1111039 / frame-threads=13 / numa-pools=12 / wpp / no-pmode / no-pme / no-psnr / no-ssim / log-level=3 / input-csp=1 / input-res=1920x816 / interlace=0 / total-frames=0 / level-idc=41 / high-tier=1 / uhd-bd=0 / ref=5 / allow-non-conformance / no-repeat-headers / annexb / no-aud / no-hrd / info / hash=0 / no-temporal-layers / open-gop / min-keyint=24 / keyint=240 / gop-lookahead=0 / bframes=8 / b-adapt=2 / b-pyramid / bframe-bias=0 / rc-lookahead=60 / lookahead-slices=4 / scenecut=40 / radl=0 / no-intra-refresh / ctu=32 / min-cu-size=8 / rect / amp / max-tu-size=32 / tu-inter-depth=4 / tu-intra-depth=4 / limit-tu=1 / rdoq-level=2 / dynamic-rd=0.00 / no-ssim-rd / signhide / no-tskip / nr-intra=0 / nr-inter=0 / no-constrained-intra / no-strong-intra-smoothing / max-merge=4 / limit-refs=2 / limit-modes / me=3 / subme=7 / merange=57 / temporal-mvp / weightp / weightb / no-analyze-src-pics / deblock=-3:-3 / no-sao / no-sao-non-deblock / rd=6 / no-early-skip / no-rskip / no-fast-intra / no-tskip-fast / no-cu-lossless / no-b-intra / no-splitrd-skip / rdpenalty=0 / psy-rd=2.00 / psy-rdoq=1.00 / no-rd-refine / no-lossless / cbqpoffs=0 / crqpoffs=0 / rc=crf / crf=19.0 / qcomp=0.65 / qpstep=1 / stats-write=0 / stats-read=0 / vbv-maxrate=50000 / vbv-bufsize=50000 / vbv-init=0.9 / crf-max=30.0 / crf-min=0.0 / ipratio=1.40 / pbratio=1.30 / aq-mode=1 / aq-strength=0.90 / no-cutree / zone-count=0 / no-strict-cbr / qg-size=32 / no-rc-grain / qpmax=69 / qpmin=0 / no-const-vbv / sar=1 / overscan=0 / videoformat=5 / range=0 / colorprim=2 / transfer=2 / colormatrix=2 / chromaloc=0 / display-window=0 / max-cll=0,0 / min-luma=0 / max-luma=1023 / log2-max-poc-lsb=8 / vui-timing-info / vui-hrd-info / slices=1 / no-opt-qp-pps / no-opt-ref-list-length-pps / no-multi-pass-opt-rps / scenecut-bias=0.05 / no-opt-cu-delta-qp / no-aq-motion / no-hdr / no-hdr-opt / no-dhdr10-opt / no-idr-recovery-sei / analysis-reuse-level=5 / scale-factor=0 / refine-intra=0 / refine-inter=0 / refine-mv=0 / no-limit-sao / ctu-info=0 / no-lowpass-dct / refine-mv-type=0 / copy-pic=1 / max-ausize-factor=1.0 / no-dynamic-refine / no-single-sei
Default                                  : Yes
Forced                                   : No

Audio #1
ID                                       : 2
Format                                   : AC-3
Format/Info                              : Audio Coding 3
Commercial name                          : Dolby Digital
Codec ID                                 : A_AC3
Duration                                 : 1 h 34 min
Bit rate mode                            : Constant
Bit rate                                 : 448 kb/s
Channel(s)                               : 6 channels
Channel layout                           : L R C LFE Ls Rs
Sampling rate                            : 48.0 kHz
Frame rate                               : 31.250 FPS (1536 SPF)
Compression mode                         : Lossy
Stream size                              : 304 MiB (5%)
Title                                    : AC-3 / 5.1 Ch / 448 kbps / DUB / Blu-Ray
Language                                 : Ukrainian
Service kind                             : Complete Main
Default                                  : Yes
Forced                                   : Yes

Audio #2
ID                                       : 3
Format                                   : ES
Format/Info                              : Digital Theater Systems
Commercial name                          : -ES Matrix
Codec ID                                 : A_DTS
Duration                                 : 1 h 34 min
Bit rate mode                            : Constant
Bit rate                                 : 1 509 kb/s
Channel(s)                               : 6 channels
Channel(s)_Original                      : 7 channels
ChannelLayout_Original                   : C L R Ls Rs Cs LFE
Sampling rate                            : 48.0 kHz
Frame rate                               : 93.750 FPS (512 SPF)
Bit depth                                : 24 bits
Compression mode                         : Lossy
Stream size                              : 1.00 GiB (17%)
Title                                    : -ES / 5.1 Ch / 1509 kbps / Original
Language                                 : English
Default                                  : No
Forced                                   : No

Audio #3
ID                                       : 4
Format                                   : AC-3
Format/Info                              : Audio Coding 3
Commercial name                          : Dolby Digital
Codec ID                                 : A_AC3
Duration                                 : 1 h 34 min
Bit rate mode                            : Constant
Bit rate                                 : 192 kb/s
Channel(s)                               : 2 channels
Channel layout                           : L R
Sampling rate                            : 48.0 kHz
Frame rate                               : 31.250 FPS (1536 SPF)
Compression mode                         : Lossy
Stream size                              : 130 MiB (2%)
Title                                    : AC-3 / 2.0 Ch / 192 kbps / Original / Commentary
Language                                 : English
Service kind                             : Complete Main
Default                                  : No
Forced                                   : No

Text #1
ID                                       : 5
Format                                   : UTF-8
Codec ID                                 : S_TEXT/UTF8
Codec ID/Info                            : UTF-8 Plain Text
Duration                                 : 1 h 19 min
Bit rate                                 : 0 b/s
Count of elements                        : 2
Stream size                              : 37.0 Bytes (0%)
Title                                    : Forced
Language                                 : Ukrainian
Default                                  : Yes
Forced                                   : Yes

Text #2
ID                                       : 6
Format                                   : UTF-8
Codec ID                                 : S_TEXT/UTF8
Codec ID/Info                            : UTF-8 Plain Text
Duration                                 : 1 h 34 min
Bit rate                                 : 76 b/s
Count of elements                        : 1251
Stream size                              : 52.9 KiB (0%)
Title                                    : Full from iTunes
Language                                 : Ukrainian
Default                                  : No
Forced                                   : No

Text #3
ID                                       : 7
Format                                   : UTF-8
Codec ID                                 : S_TEXT/UTF8
Codec ID/Info                            : UTF-8 Plain Text
Duration                                 : 1 h 29 min
Bit rate                                 : 56 b/s
Count of elements                        : 1470
Stream size                              : 36.8 KiB (0%)
Title                                    : Full
Language                                 : English
Default                                  : No
Forced                                   : No

Text #4
ID                                       : 8
Format                                   : UTF-8
Codec ID                                 : S_TEXT/UTF8
Codec ID/Info                            : UTF-8 Plain Text
Duration                                 : 1 h 29 min
Bit rate                                 : 64 b/s
Count of elements                        : 1776
Stream size                              : 42.4 KiB (0%)
Title                                    : SDH
Language                                 : English
Default                                  : No
Forced                                   : No

Text #5
ID                                       : 9
Format                                   : UTF-8
Codec ID                                 : S_TEXT/UTF8
Codec ID/Info                            : UTF-8 Plain Text
Duration                                 : 1 h 32 min
Bit rate                                 : 84 b/s
Count of elements                        : 1777
Stream size                              : 57.6 KiB (0%)
Title                                    : SDH-Colored
Language                                 : English
Default                                  : No
Forced                                   : No

Menu
00:00:00.000                             : en:Oogway's Legacy
00:05:21.779                             : en:Hungry for Lunch
00:08:10.239                             : en:The Power of Chi
00:10:00.016                             : en:The Arrival of Kai
00:12:26.036                             : en:A New Father
00:15:24.214                             : en:The Hall of Heroes
00:19:08.230                             : en:The Legend of Kai
00:24:39.394                             : en:The Panda Village
00:30:17.607                             : en:Mei Mei's Ribbon Dance
00:33:53.990                             : en:Jaded
00:36:18.259                             : en:How To Be a Panda
00:39:55.643                             : en:Portrait of Mom
00:43:32.651                             : en:Po Belongs
00:46:45.844                             : en:Kai is Closer
00:51:41.181                             : en:Two Fathers
00:56:04.611                             : en:The Battle of Legends
00:59:48.167                             : en:The Spirit Realm
01:02:11.352                             : en:The Dragon Warrior
01:05:26.964                             : en:Closing Credits
01:10:16.837                             : en:Passing the Torch
01:14:06.900                             : en:Father and Son
01:17:06.580                             : en:Kung Fu Fighting (Celebration Time)
01:20:34.788                             : en:Try
01:24:21.181                             : en:Kung Fu Fighting
Світлини




Джерело: &
Особиста оцінка: 10 - без зайвих вагань рекомендую всім!


Бронзовий реліз (на рейтинг впливає 75% завантаженого)
 Трекер:    Зареєстрований   

Завантажити / скачати мультфільм українською



відео для новачків



 Зареєстрований:   2021-02-13 01:21
 Розмір:   14.45 GB 
 Оцінка мультфільму:   9.8/10 (Голосів: 33)
   
Anonymous 







2021-02-13 01:22  
- Додано саби з Нетфлікс до 1-2 частин;
- Замінено вкладені постери;
- Додано підписані заголовки до 3 частини.

Ваш часовий пояс: GMT + 2 Години

Нова тема   Відповісти