У пошуках Дорi / Finding Dory (2016) 1080p H.265 Ukr/Eng | Sub Eng

Нові коментарі

Нова тема   Відповісти
Автор Повідомлення
Anonymous 







2019-12-07 04:24  
У пошуках Дорi / Finding Dory (2016) 1080p H.265 Ukr/Eng | Sub Eng

У пошуках Дорi / Finding Dory (2016) 1080p H.265 Ukr/Eng | Sub Eng


Жанр: анімація, комедія, пригодницький, сімейний
Країна: США
Кінокомпанія: Pixar Animation Studios, Walt Disney Pictures
Режисер: Ендрю Стентон / Andrew Stanton, Енгус МакЛейн / Angus MacLane
Актори: Еллен ДеДженерес, Альберт Брукс, Ідріс Ельба, Дайана Кітон, Кейт МакКіннон, Домінік Вест та інші

Сюжет:
Продовження мультфільму про рибу-клоуна та інших мешканців підводного світу "У пошуках Немо". Події відбуваються через рік після першої частини. Подруга Немо, риба-хірург Дорі, яка страждає провалами в пам'яті, раптово згадує своє дитинство. Вона стає одержима ідеєю знайти свою родину і відправляється у подорож разом з Немо та Марліном. Друзі відвідують Монтерейський інститут морського життя, де зустрічають китову акулу Дестіні, білуху Бейлі та восьминога Генка. Останній стане важливою ланкою у пошуках Дорі.

Анімаційний пригодницький фільм від дворазового лауреата Оскара Ендрю Стентона, творця "В пошуках Немо", "Волл-І" та ін.

Тривалість: 01:37:03
Якість: (Російський відеоряд)

Відео:
кодек: H.265 (HEVC)
розмір кадру: 1920 x 1080
бітрейт: 9 374 кб/с
бітова глибина: 10 біт

Увага! Перед завантаженням переконайтесь, що ваш пристрій відтворення (та/або ПЗ) підтримує H.265 (HEVC)

Аудіо # 1:
мова: українська
переклад: професійний дубльований | Студія LeDoyen
кодек: 5.1
бітрейт: 1510 кб/с

Аудіо # 2:
мова: англійська
переклад: оригінал
кодек: 5.1
бітрейт: 1510 кб/с

Субтитри # 1-2: (Full, SDH)
мова: англійська
тип: програмні (м'які)
формат: *.srt


Info
Код:
General
Unique ID                                : 187675058650910707538284024090501333078 (0x8D30E6CA79E9B6F8EF3C1FE348044056)
Complete name                            : Finding Dory (2016) 1080p H.265 [UKR_ENG] [Hurtom].
Format                                   :
Format version                           : Version 4
File size                                : 8.40 GiB
Duration                                 : 1 h 37 min
Overall bit rate                         : 12.4 Mb/s
Movie name                               : У пошуках Дорi / Finding Dory (2016)
Encoded date                             : UTC 2019-12-06 00:00:04
Writing application                      : v20.0.0 ('I Am The Sun') 64-bit
Writing library                          : libebml v1.3.5 + v1.4.8
Cover                                    : Yes
Attachments                              : cover

Video
ID                                       : 1
Format                                   : HEVC
Format/Info                              : High Efficiency Video Coding
Format profile                           : Main [email protected]@High
Codec ID                                 : V_MPEGH/ISO/HEVC
Duration                                 : 1 h 37 min
Bit rate                                 : 9 374 kb/s
Width                                    : 1 920 pixels
Height                                   : 1 080 pixels
Display aspect ratio                     : 16:9
Frame rate mode                          : Constant
Frame rate                               : 23.976 (24000/1001) FPS
Color space                              : YUV
Chroma subsampling                       : 4:2:0
Bit depth                                : 10 bits
Bits/(Pixel*Frame)                       : 0.189
Stream size                              : 6.35 GiB (76%)
Title                                    : У пошуках Дорi / Finding Dory (2016)
Writing library                          : x265 2.8+74-fd517ae68f93:[Windows][GCC 7.3.0][64 bit] 10bit
Encoding settings                        : cpuid=1111039 / frame-threads=13 / numa-pools=12 / wpp / no-pmode / no-pme / no-psnr / no-ssim / log-level=3 / input-csp=1 / input-res=1920x1080 / interlace=0 / total-frames=0 / level-idc=41 / high-tier=1 / uhd-bd=0 / ref=5 / allow-non-conformance / no-repeat-headers / annexb / no-aud / no-hrd / info / hash=0 / no-temporal-layers / open-gop / min-keyint=24 / keyint=240 / gop-lookahead=0 / bframes=12 / b-adapt=2 / b-pyramid / bframe-bias=0 / rc-lookahead=60 / lookahead-slices=4 / scenecut=40 / radl=0 / no-intra-refresh / ctu=32 / min-cu-size=8 / rect / amp / max-tu-size=32 / tu-inter-depth=4 / tu-intra-depth=4 / limit-tu=1 / rdoq-level=2 / dynamic-rd=0.00 / no-ssim-rd / signhide / no-tskip / nr-intra=0 / nr-inter=0 / no-constrained-intra / no-strong-intra-smoothing / max-merge=4 / limit-refs=2 / limit-modes / me=3 / subme=7 / merange=57 / temporal-mvp / weightp / weightb / no-analyze-src-pics / deblock=-3:-3 / no-sao / no-sao-non-deblock / rd=6 / no-early-skip / no-rskip / no-fast-intra / no-tskip-fast / no-cu-lossless / no-b-intra / no-splitrd-skip / rdpenalty=0 / psy-rd=2.00 / psy-rdoq=1.00 / no-rd-refine / no-lossless / cbqpoffs=0 / crqpoffs=0 / rc=crf / crf=20.0 / qcomp=0.60 / qpstep=1 / stats-write=0 / stats-read=0 / vbv-maxrate=50000 / vbv-bufsize=50000 / vbv-init=0.9 / crf-max=30.0 / crf-min=0.0 / ipratio=1.40 / pbratio=1.30 / aq-mode=1 / aq-strength=0.90 / no-cutree / zone-count=0 / no-strict-cbr / qg-size=32 / no-rc-grain / qpmax=69 / qpmin=0 / no-const-vbv / sar=1 / overscan=0 / videoformat=5 / range=0 / colorprim=2 / transfer=2 / colormatrix=2 / chromaloc=0 / display-window=0 / max-cll=0,0 / min-luma=0 / max-luma=1023 / log2-max-poc-lsb=8 / vui-timing-info / vui-hrd-info / slices=1 / no-opt-qp-pps / no-opt-ref-list-length-pps / no-multi-pass-opt-rps / scenecut-bias=0.05 / no-opt-cu-delta-qp / no-aq-motion / no-hdr / no-hdr-opt / no-dhdr10-opt / no-idr-recovery-sei / analysis-reuse-level=5 / scale-factor=0 / refine-intra=0 / refine-inter=0 / refine-mv=0 / no-limit-sao / ctu-info=0 / no-lowpass-dct / refine-mv-type=0 / copy-pic=1 / max-ausize-factor=1.0 / no-dynamic-refine / no-single-sei
Default                                  : Yes
Forced                                   : No

Audio #1
ID                                       : 2
Format                                   :
Format/Info                              : Digital Theater Systems
Codec ID                                 : A_DTS
Duration                                 : 1 h 37 min
Bit rate mode                            : Constant
Bit rate                                 : 1 509 kb/s
Channel(s)                               : 6 channels
Channel layout                           : C L R Ls Rs LFE
Sampling rate                            : 48.0 kHz
Frame rate                               : 93.750 FPS (512 SPF)
Bit depth                                : 24 bits
Compression mode                         : Lossy
Stream size                              : 1.02 GiB (12%)
Title                                    : / 5.1 Ch / 1509 kbps / ПД / Студія LeDoyen
Language                                 : Ukrainian
Default                                  : Yes
Forced                                   : Yes

Audio #2
ID                                       : 3
Format                                   :
Format/Info                              : Digital Theater Systems
Codec ID                                 : A_DTS
Duration                                 : 1 h 37 min
Bit rate mode                            : Constant
Bit rate                                 : 1 509 kb/s
Channel(s)                               : 6 channels
Channel layout                           : C L R Ls Rs LFE
Sampling rate                            : 48.0 kHz
Frame rate                               : 93.750 FPS (512 SPF)
Bit depth                                : 24 bits
Compression mode                         : Lossy
Stream size                              : 1.02 GiB (12%)
Title                                    : / 5.1 Ch / 1509 kbps / Original
Language                                 : English
Default                                  : No
Forced                                   : No

Text #1
ID                                       : 4
Format                                   : UTF-8
Codec ID                                 : S_TEXT/UTF8
Codec ID/Info                            : UTF-8 Plain Text
Duration                                 : 1 h 35 min
Bit rate                                 : 85 b/s
Count of elements                        : 1578
Stream size                              : 59.3 KiB (0%)
Title                                    : Full
Language                                 : English
Default                                  : No
Forced                                   : No

Text #2
ID                                       : 5
Format                                   : UTF-8
Codec ID                                 : S_TEXT/UTF8
Codec ID/Info                            : UTF-8 Plain Text
Duration                                 : 1 h 35 min
Bit rate                                 : 92 b/s
Count of elements                        : 1764
Stream size                              : 64.6 KiB (0%)
Title                                    : SDH
Language                                 : English
Default                                  : No
Forced                                   : No

Menu
00:00:00.000                             : en:Chapter 01
00:02:35.738                             : en:Chapter 02
00:06:50.243                             : en:Chapter 03
00:10:53.194                             : en:Chapter 04
00:13:33.187                             : en:Chapter 05
00:15:25.132                             : en:Chapter 06
00:17:03.313                             : en:Chapter 07
00:19:35.465                             : en:Chapter 08
00:21:35.293                             : en:Chapter 09
00:24:58.705                             : en:Chapter 10
00:27:08.543                             : en:Chapter 11
00:30:33.206                             : en:Chapter 12
00:35:00.264                             : en:Chapter 13
00:37:52.019                             : en:Chapter 14
00:40:17.998                             : en:Chapter 15
00:41:06.672                             : en:Chapter 16
00:42:30.422                             : en:Chapter 17
00:46:03.427                             : en:Chapter 18
00:48:41.710                             : en:Chapter 19
00:50:27.857                             : en:Chapter 20
00:55:06.678                             : en:Chapter 21
00:57:05.838                             : en:Chapter 22
01:00:41.345                             : en:Chapter 23
01:04:32.952                             : en:Chapter 24
01:10:36.815                             : en:Chapter 25
01:12:28.301                             : en:Chapter 26
01:14:09.861                             : en:Chapter 27
01:18:26.493                             : en:Chapter 28
01:26:49.328                             : en:Chapter 29
01:37:03.400                             : en:Chapter 30
Світлини




Джерело: &
Особиста оцінка: 10 - без зайвих вагань рекомендую всім!


 Трекер:    Зареєстрований   

Завантажити / скачати мультфільм українською



відео для новачків



 Зареєстрований:   2019-12-07 04:24
 Розмір:   8.4 GB 
 Оцінка мультфільму:   9.9/10 (Голосів: 11)
   
Ваш часовий пояс: GMT + 2 Години

Нова тема   Відповісти