Сімпсони (Сезони 26-31) / The Simpsons (Seasons 26, 27, 28, 29, 30, 31) (2014-2020) 720p Ukr/Eng | sub Eng

Нові коментарі

Нова тема   Відповісти
Автор Повідомлення
pingwin4eg 
Новенький


З нами з: 11.05.11
Востаннє: 28.03.21
Повідомлень: 7

2019-12-07 02:48  
Сімпсони (Сезони 26-31) / The Simpsons (Seasons 26-31) (2014-2020) 720p Ukr/Eng | sub Eng

Сімпсони (Сезони 26-31) / The Simpsons (Seasons 26, 27, 28, 29, 30, 31) (2014-2020) 720p Ukr/Eng | sub Eng


Жанр: анімація, комедія
Країна: США



Кінокомпанія: Gracie Films спільно з 20th Century Fox Television.
Режисери: Майк Андерсон (Mike B. Anderson), Марк Кіркланд (Mark Kirkland), Стівен Дін Мур (Steven Dean Moore), Боб Андерсон (Bob Anderson), Метью Настюк (Matthew Nastuk) та інші.
Актори: Ден Кастелланета (Dan Castellaneta), Ненсі Картрайт (Nancy Cartwright), Гаррі Шірер (Harry Shearer), Джулі Кавнер (Julie Kavner), Ярдлі Сміт (Yeardley Smith), Генк Азарія (Hank Azaria) та інші.
Актори дубляжу: Євген Малуха, Ганна Левченко, Ірина Дорошенко, Юрій Коваленко.

Сюжет:
«Сімпсони» — американський анімаційний серіал, створений Меттом Ґрейнінґом для компанії FOX. Мультсеріал — сатирична пародія на стиль життя середнього класу США, втілена в сім'ї Сімпсонів, яка складається з Гомера, Мардж, Барта, Ліси та Меґґі. Більшість подій відбуваються у вигаданому містечку Спрінґфілді. Шоу висміює численні аспекти життя людей, американську культуру, суспільство, навіть американське телебачення.
Ґрейнінґ вигадав «Сімпсонів» незадовго до початку співпраці з Джеймсом Бруксом. Він зробив кілька короткометражних сюжетів із життя маргінальної родини, обравши для героїв імена членів власної сім'ї, а своє замінивши на «Барт». Короткометражні фрагменти стали частиною «Шоу Трейсі Ульман», прем'єра відбулася 19 квітня 1987 року. Після трьох сезонів в ефірі 17 грудня 1989 року програма розвинулася до півгодинного шоу класу «прайм-тайм».

Тривалість: 1 серія: ~ 22 хв (цілком серій: 132)
Перелік серій
26x01 - Клоун на звалищі | Clown in the Dumps
26x02 - Крах стосунків | The Wreck of the Relationship
26x03 - Супер франшизу мені | Super Franchise Me
26x04 - Будиночок жахів 25 | Treehouse of Horror XXV
26x05 - Протилежності розриваються | Opposites A-Frack
26x06 - Сімпсорама | Simpsorama
26x07 - Палаючий і збентежений | Blazed and Confused
26x08 - Каверкрафт | Covercraft
26x09 - Я не буду вдома на Різдво | I Won't Be Home for Christmas
26x10 - Людина, яка прийшла, аби стати вечерею | The Man Who Came to Be Dinner
26x11 - Новий друг Барта | Bart's New Friend
26x12 - Маск, який впав на Землю | The Musk Who Fell to Earth
26x13 - Крокуючи широко та високо | Walking Big & Tall
26x14 - Моя тарифікована леді | My Fare Lady
26x15 - Гід для принцеси | The Princess Guide
26x16 - Небесний коп | Sky Police
26x17 - Чекаючи на Кнурмена | Waiting for Duffman
26x18 - Мама, що підглядає | Peeping Mom
26x19 - Діти постійно сваряться | The Kids Are All Fight
26x20 - Підемо політаємо з дурнем | Let's Go Fly a Coot
26x21 - Розбишаки | Bull-E
26x22 - Подвиг матлета | Mathlete's Feat
---
27x01 - Мрія кожного чоловіка | Every Man's Dream
27x02 - Шашликовий детектив | Cue Detective
27x03 - Без димку | Puffless
27x04 - Хелловін жахів | Halloween of Horror
27x05 - Будиночок жахів 26 | Treehouse of Horror XXVI
27x06 - Друг із вигодою | Friend with Benefit
27x07 - Ліса через «С» | Lisa with an 'S'
27x08 - Шляхи слави | Paths of Glory
27x09 - Бартність | Barthood
27x10 - Дівчачий код | The Girl Code
27x11 - Підліткові неприємності, викликані молоком | Teenage Mutant Milk-Caused Hurdles
27x12 - Багато Апу із дечого | Much Apu About Something
27x13 - Кохання у N2-O2-Ar-CO2-Ne-He-CH4 | Love Is in the N2-O2-Ar-CO2-Ne-He-CH4
27x14 - Дівча постійної печалі | Gal of Constant Sorrow
27x15 - Ліса — ветеринар | Lisa the Veterinarian
27x16 - Марджіанські хроніки | The Marge-ian Chronicles
27x17 - Клітка Бернса | The Burns Cage
27x18 - Як Ліса повернула свою Мардж | How Lisa Got Her Marge Back
27x19 - Фланд-Каньйон | Fland Canyon
27x20 - Кур’єру з любов’ю | To Courier with Love
27x21 - Сімпровізація | Simprovised
27x22 - Помаранчевий — новий жовтий | Orange Is the New Yellow
---
28x01 - Монті Бернс: Тікаючий цирк | Monty Burns' Fleeing Circus
28x02 - Друзі та сім’я | Friends and Family
28x03 - Місто | The Town
28x04 - Будиночок жахів 27 | Treehouse of Horror XXVII
28x05 - Довіряй, але уточнюй | Trust but Clarify
28x06 - Будьмо друзями | There Will Be Buds
28x07 - Дикі вихідні в Гавані | Havana Wild Weekend
28x08 - Татова поведінка | Dad Behavior
28x09 - Останній тяговий герой | The Last Traction Hero
28x10 - Кошмар після Крастіздва | The Nightmare After Krustmas
28x11 - Свинина і Бернс | Pork and Burns
28x12x13 - Великий Жирсбі | The Great Phatsby
28x14 - Жирскарральдо | Fatzcarraldo
28x15 - Хам і капелюх | The Cad and the Hat
28x16 - Табір Красті 2 | Kamp Krustier
28x17 - 22 за 30 | 22 for 30
28x18 - Батьків годинник | A Father's Watch
28x19 - Погоня за каперсами | The Caper Chase
28x20 - У пошуках містера Добробарта | Looking for Mr. Goodbart
28x21 - Мохо дім | Moho House
28x22 - Доґтаун | Dogtown
---
29x01 - Сьорфсони | The Serfsons
29x02 - Спрінґфілдська велич | Springfield Splendor
29x03 - Батько свистуна | Whistler's Father
29x04 - Будиночок жахів 28 | Treehouse of Horror XXVIII
29x05 - Дідусю, ти мене чуєш? | Grampy Can Ya Hear Me
29x06 - Старий синій мер вже не та, що раніше | The Old Blue Mayor She Ain't What She Used to Be
29x07 - Співаючи на доріжці | Singin' in the Lane
29x08 - Опус Ліси | Mr. Lisa's Opus
29x09 - Зниклий | Gone Boy
29x10 - Ха-Ха Ленд | Haw-Haw Land
29x11 - Фрінк тестує | Frink Gets Testy
29x12 - Гомер там, де немає мистецтва | Homer Is Where the Art Isn't
29x13 - 3 сцени плюс мораль зі шлюбу | 3 Scenes Plus a Tag from a Marriage
29x14 - Страхи клоуна | Fears of a Clown
29x15 - Жодне гарне читання не залишається безкарним | No Good Read Goes Unpunished
29x16 - Король Злісний Погляд | King Leer
29x17 - Ліса отримує блюз | Lisa Gets the Blues
29x18 - Пробачити і шкодувати | Forgive and Regret
29x19 - Залишений | Left Behind
29x20 - Скинь діда з данця | Throw Grampa from the Dane
29x21 - Драбина Фландерса | Flanders' Ladder
---
30x01 - Барт живий | Bart's Not Dead
30x02 - Готель розбитих сердець | Heartbreak Hotel
30x03 - Мій шлях або шосе до неба | My Way or the Highway to Heaven
30x04 - Будиночок жахів 29 | Treehouse of Horror XXIX
30x05 - Крихітко, ти не можеш керувати моїм автомобілем | Baby You Can't Drive My Car
30x06 - З Росії без любові | From Russia Without Love
30x07 - Працююча мати | Werking Mom
30x08 - Клоун Красті | Krusty the Clown
30x09 - Таттікус Фінч | Daddicus Finch
30x10 - Це — тридцятий сезон | 'Tis the 30th Season
30x11 - Шалений від іграшки | Mad About the Toy
30x12 - Дівчинка в автобусі | The Girl on the Bus
30x13 - Я танцюю так жирно, як можу | I'm Dancing as Fat as I Can
30x14 - Клоун залишається у картині | The Clown Stays in the Picture
30x15 - 101 пом’якшення | 101 Mitigations
30x16 - Я хочу тебе (Вона така важка) | I Want You (She's So Heavy)
30x17 - Мій кіберспорт | E My Sports
30x18 - Барт проти Чуха і Сверблячки | Bart vs. Itchy & Scratchy
30x19 - Дівчинка у групі | Girl's in the Band
30x20 - Я — просто дівчина, що не може сказати «Д’оу» | I'm Just a Girl Who Can't Say D'oh
30x21 - Д’оу Канадо | D'oh Canada
30x22 - Хто це зробив? | Woo-Hoo Dunnit?
30x23 - Кришталево-синьоволосе переконання | Crystal Blue-Haired Persuasion
---
31x01 - Зима монетизації контенту | The Winter of Our Monetized Content
31x02 - До вершин або як Гомер | Go Big or Go Homer
31x03 - Товста синя лінія | The Fat Blue Line
31x04 - Будиночок жахів 30 | Treehouse of Horror XXX
31x05 - Горили на щоглі | Gorillas on the Mast
31x06 - Мардж — лісоруб | Marge the Lumberjill
31x07 - Жити чистим життям | Livin La Pura Vida
31x08 - День подяки жахів | Thanksgiving of Horror
31x09 - Тодде, Тодде, чому ти залишив мене? | Todd, Todd, Why Hast Thou Foresaken Me?
31x10 - Боббі, надворі холод | Bobby: It's Cold Outside
31x11 - Слава зубам | Hail to the Teeth
31x12 - Неправильна освіта Ліси Сімпсон | The Miseducation of Lisa Simpson
31x13 - Фрінкоїн | Frinkcoin
31x14 - Барт — поганець | Bart the Bad Guy
31x15 - Без гаджетів | Screenless
31x16 - Вже краще Нед | Better Off Ned
31x17 - Дорога до блага | Highway to Well
31x18 - Неймовірна легкість бути дитиною | The Incredible Lightness of Being a Baby
31x19 - Війна священників (частина 1) | Warrin' Priests (Part One)
31x20 - Війна священників (частина 2) | Warrin' Priests (Part Two)
31x21 - Мерзенні восьмирічні | The Hateful Eight-Year-Olds
31x22 - Шлях пса | The Way of the Dog
Якість:
Відео:
кодек:
розмір кадру: 1280 х 720 (окрім 1280 x 718 у 16-22 серіях 26 сезону, 1, 3-9, 12-22 серіях 27 сезону, 1-11, 14-16, 18-22 серіях 28 сезону)
бітрейт: ~3600 кб/с (сезон 26); ~3900 кб/с (сезон 27); ~4000 кб/с (сезон 28); ~1400 кб/с (сезони 29-30); ~1500 кб/с (сезон 31)

Аудіо # 1:
мова: українська
переклад: професійний дубльований
кодек: 2.0
бітрейт: 192 кб/с

Аудіо # 2:
мова: англійська
переклад: оригінал
кодек: 5.1 (сезони 26-28); EAC3 5.1 (сезони 29-31); 2.0 (серія 31x18)
бітрейт: 384 кб/с (сезони 26-28); 640 кб/с (сезони 29-30); 256 кб/с (сезон 31); 64 кб/с (серія 31x18)

Субтитри:
мова: англійська
тип: програмні (м'які)
формат: *.srt

Джерело озвучення: Так Треба Продакшн, трансляція телеканалу
Info
Сезон 26
General
Unique ID : 126186774601856819828579308782365846160 (0x5EEEB053D456C255AC46064DCD7E2A90)
Complete name : /mnt/nas/Multimedia/TV shows/The Simpsons (1989)/Season 26/26x01 - Clown in the Dumps.
Format :
Format version : Version 4
File size : 600 MiB
Duration : 21 min 12 s
Overall bit rate : 3 959 kb/s
Encoded date : UTC 2019-12-27 10:53:19
Writing application : v41.0.0 ('Smarra') 64-bit
Writing library : libebml v1.3.9 + v1.5.2

Video
ID : 1
Format : AVC
Format/Info : Advanced Video Codec
Format profile : [email protected]
Format settings : 2 Ref Frames
Format settings, CABAC : No
Format settings, Reference frames : 2 frames
Format settings, GOP : N=1
Codec ID : V_MPEG4/ISO/AVC
Duration : 21 min 12 s
Bit rate : 3 381 kb/s
Width : 1 280 pixels
Height : 720 pixels
Display aspect ratio : 16:9
Frame rate mode : Constant
Frame rate : 23.976 (23976/1000) FPS
Color space : YUV
Chroma subsampling : 4:2:0
Bit depth : 8 bits
Scan type : Progressive
Bits/(Pixel*Frame) : 0.153
Stream size : 513 MiB (85%)
Language : English
Default : Yes
Forced : No
Color range : Limited
Color primaries : BT.709
Transfer characteristics : BT.709
Matrix coefficients : BT.709

Audio #1
ID : 2
Format : AC-3
Format/Info : Audio Coding 3
Commercial name : Dolby Digital
Codec ID : A_AC3
Duration : 21 min 11 s
Bit rate mode : Constant
Bit rate : 192 kb/s
Channel(s) : 2 channels
Channel layout : L R
Sampling rate : 48.0 kHz
Frame rate : 31.250 FPS (1536 SPF)
Compression mode : Lossy
Delay relative to video : 68 ms
Stream size : 29.1 MiB (5%)
Title : DUB (НЛО TV)
Language : Ukrainian
Service kind : Complete Main
Default : Yes
Forced : No

Audio #2
ID : 3
Format : AC-3
Format/Info : Audio Coding 3
Commercial name : Dolby Digital
Codec ID : A_AC3
Duration : 21 min 12 s
Bit rate mode : Constant
Bit rate : 384 kb/s
Channel(s) : 6 channels
Channel layout : L R C LFE Ls Rs
Sampling rate : 48.0 kHz
Frame rate : 31.250 FPS (1536 SPF)
Compression mode : Lossy
Stream size : 58.2 MiB (10%)
Title : Original
Language : English
Service kind : Complete Main
Default : No
Forced : No

Text
ID : 4
Format : UTF-8
Codec ID : S_TEXT/UTF8
Codec ID/Info : UTF-8 Plain Text
Duration : 20 min 54 s
Bit rate : 89 b/s
Count of elements : 470
Stream size : 13.7 KiB (0%)
Title : SDH
Language : English
Default : No
Forced : No
Сезон 27
General
Unique ID : 47731591024045071780839877481745044625 (0x23E8C521A5583332C11C2A243A535491)
Complete name : /mnt/nas/Multimedia/TV shows/The Simpsons (1989)/Season 27/27x01 - Every Man's Dream.
Format :
Format version : Version 4
File size : 661 MiB
Duration : 21 min 31 s
Overall bit rate : 4 295 kb/s
Encoded date : UTC 2019-12-05 19:07:51
Writing application : v40.0.0 ('Old Town Road + Pony') 64-bit
Writing library : libebml v1.3.9 + v1.5.2

Video
ID : 1
Format : AVC
Format/Info : Advanced Video Codec
Format profile : [email protected]
Format settings : 2 Ref Frames
Format settings, CABAC : No
Format settings, Reference frames : 2 frames
Codec ID : V_MPEG4/ISO/AVC
Duration : 21 min 31 s
Bit rate : 3 716 kb/s
Width : 1 280 pixels
Height : 718 pixels
Display aspect ratio : 16:9
Frame rate mode : Constant
Frame rate : 23.976 (24000/1001) FPS
Color space : YUV
Chroma subsampling : 4:2:0
Bit depth : 8 bits
Scan type : Progressive
Bits/(Pixel*Frame) : 0.169
Stream size : 572 MiB (87%)
Language : English
Default : Yes
Forced : No
Color range : Limited
Color primaries : BT.709
Transfer characteristics : BT.709
Matrix coefficients : BT.709

Audio #1
ID : 2
Format : AC-3
Format/Info : Audio Coding 3
Commercial name : Dolby Digital
Codec ID : A_AC3
Duration : 21 min 31 s
Bit rate mode : Constant
Bit rate : 192 kb/s
Channel(s) : 2 channels
Channel layout : L R
Sampling rate : 48.0 kHz
Frame rate : 31.250 FPS (1536 SPF)
Compression mode : Lossy
Delay relative to video : 25 ms
Stream size : 29.6 MiB (4%)
Title : DUB (НЛО TV)
Language : Ukrainian
Service kind : Complete Main
Default : Yes
Forced : No

Audio #2
ID : 3
Format : AC-3
Format/Info : Audio Coding 3
Commercial name : Dolby Digital
Codec ID : A_AC3
Duration : 21 min 31 s
Bit rate mode : Constant
Bit rate : 384 kb/s
Channel(s) : 6 channels
Channel layout : L R C LFE Ls Rs
Sampling rate : 48.0 kHz
Frame rate : 31.250 FPS (1536 SPF)
Compression mode : Lossy
Delay relative to video : 25 ms
Stream size : 59.1 MiB (9%)
Title : Original
Language : English
Service kind : Complete Main
Default : No
Forced : No

Text
ID : 4
Format : UTF-8
Codec ID : S_TEXT/UTF8
Codec ID/Info : UTF-8 Plain Text
Duration : 21 min 27 s
Bit rate : 94 b/s
Count of elements : 546
Stream size : 14.8 KiB (0%)
Title : Full (SDH)
Language : English
Default : No
Forced : No
Сезон 28
General
Unique ID : 10999324517874793287535568745990698166 (0x8466491892D35128BAD0BAE524FB4B6)
Complete name : /mnt/nas/Multimedia/TV shows/The Simpsons (1989)/Season 28/28x01 - Monty Burns' Fleeing Circus.
Format :
Format version : Version 4
File size : 694 MiB
Duration : 21 min 10 s
Overall bit rate : 4 582 kb/s
Encoded date : UTC 2019-12-11 05:17:32
Writing application : v41.0.0 ('Smarra') 64-bit
Writing library : libebml v1.3.9 + v1.5.2

Video
ID : 1
Format : AVC
Format/Info : Advanced Video Codec
Format profile : [email protected]
Format settings : 2 Ref Frames
Format settings, CABAC : No
Format settings, Reference frames : 2 frames
Format settings, GOP : N=1
Codec ID : V_MPEG4/ISO/AVC
Duration : 21 min 10 s
Bit rate : 4 003 kb/s
Width : 1 280 pixels
Height : 718 pixels
Display aspect ratio : 16:9
Frame rate mode : Constant
Frame rate : 23.976 (24000/1001) FPS
Color space : YUV
Chroma subsampling : 4:2:0
Bit depth : 8 bits
Scan type : Progressive
Bits/(Pixel*Frame) : 0.182
Stream size : 606 MiB (87%)
Language : English
Default : Yes
Forced : No
Color range : Limited
Color primaries : BT.709
Transfer characteristics : BT.709
Matrix coefficients : BT.709

Audio #1
ID : 2
Format : AC-3
Format/Info : Audio Coding 3
Commercial name : Dolby Digital
Codec ID : A_AC3
Duration : 21 min 9 s
Bit rate mode : Constant
Bit rate : 192 kb/s
Channel(s) : 2 channels
Channel layout : L R
Sampling rate : 48.0 kHz
Frame rate : 31.250 FPS (1536 SPF)
Compression mode : Lossy
Delay relative to video : 16 ms
Stream size : 29.1 MiB (4%)
Title : DUB (НЛО TV)
Language : Ukrainian
Service kind : Complete Main
Default : Yes
Forced : No

Audio #2
ID : 3
Format : AC-3
Format/Info : Audio Coding 3
Commercial name : Dolby Digital
Codec ID : A_AC3
Duration : 21 min 9 s
Bit rate mode : Constant
Bit rate : 384 kb/s
Channel(s) : 6 channels
Channel layout : L R C LFE Ls Rs
Sampling rate : 48.0 kHz
Frame rate : 31.250 FPS (1536 SPF)
Compression mode : Lossy
Delay relative to video : 16 ms
Stream size : 58.1 MiB (8%)
Title : Original
Language : English
Service kind : Complete Main
Default : No
Forced : No

Text
ID : 4
Format : UTF-8
Codec ID : S_TEXT/UTF8
Codec ID/Info : UTF-8 Plain Text
Duration : 21 min 1 s
Bit rate : 86 b/s
Count of elements : 498
Stream size : 13.4 KiB (0%)
Language : English
Default : No
Forced : No
Сезон 29
General
Unique ID : 64975219892182687901900169219184711023 (0x30E1C5AC7F4F58361D77F312DB92D56F)
Complete name : /mnt/nas/Multimedia/TV shows/The Simpsons (1989)/Season 29/29x01 - The Serfsons.
Format :
Format version : Version 4
File size : 398 MiB
Duration : 21 min 37 s
Overall bit rate mode : Variable
Overall bit rate : 2 573 kb/s
Encoded date : UTC 2019-12-06 00:34:21
Writing application : v40.0.0 ('Old Town Road + Pony') 64-bit
Writing library : libebml v1.3.9 + v1.5.2

Video
ID : 1
Format : AVC
Format/Info : Advanced Video Codec
Format profile : [email protected]
Format settings : CABAC / 5 Ref Frames
Format settings, CABAC : Yes
Format settings, Reference frames : 5 frames
Codec ID : V_MPEG4/ISO/AVC
Duration : 21 min 37 s
Bit rate mode : Variable
Bit rate : 1 739 kb/s
Maximum bit rate : 4 500 kb/s
Width : 1 280 pixels
Height : 720 pixels
Display aspect ratio : 16:9
Frame rate mode : Constant
Frame rate : 23.976 (24000/1001) FPS
Color space : YUV
Chroma subsampling : 4:2:0
Bit depth : 8 bits
Scan type : Progressive
Bits/(Pixel*Frame) : 0.079
Stream size : 269 MiB (68%)
Language : English
Default : Yes
Forced : No
Color range : Limited
Color primaries : BT.709
Transfer characteristics : BT.709
Matrix coefficients : BT.709

Audio #1
ID : 2
Format : AC-3
Format/Info : Audio Coding 3
Commercial name : Dolby Digital
Codec ID : A_AC3
Duration : 21 min 37 s
Bit rate mode : Constant
Bit rate : 192 kb/s
Channel(s) : 2 channels
Channel layout : L R
Sampling rate : 48.0 kHz
Frame rate : 31.250 FPS (1536 SPF)
Compression mode : Lossy
Stream size : 29.7 MiB (7%)
Title : DUB (НЛО TV)
Language : Ukrainian
Service kind : Complete Main
Default : Yes
Forced : No

Audio #2
ID : 3
Format : E-AC-3
Format/Info : Enhanced AC-3
Commercial name : Dolby Digital Plus
Codec ID : A_EAC3
Duration : 21 min 37 s
Bit rate mode : Constant
Bit rate : 640 kb/s
Channel(s) : 6 channels
Channel layout : L R C LFE Ls Rs
Sampling rate : 48.0 kHz
Frame rate : 31.250 FPS (1536 SPF)
Compression mode : Lossy
Stream size : 99.0 MiB (25%)
Title : Original
Language : English
Service kind : Complete Main
Default : No
Forced : No

Text
ID : 4
Format : UTF-8
Codec ID : S_TEXT/UTF8
Codec ID/Info : UTF-8 Plain Text
Duration : 21 min 32 s
Bit rate : 88 b/s
Count of elements : 509
Stream size : 14.0 KiB (0%)
Title : Full (SDH)
Language : English
Default : No
Forced : No
Сезон 30
General
Unique ID : 33116263143308038619383865729731081964 (0x18E9F5D521DCCC0E8060B0C8C49D36EC)
Complete name : /mnt/nas/Multimedia/TV shows/The Simpsons (1989)/Season 30/30x01 - Bart's Not Dead.
Format :
Format version : Version 4
File size : 297 MiB
Duration : 20 min 58 s
Overall bit rate : 1 979 kb/s
Encoded date : UTC 2019-12-07 21:30:38
Writing application : v40.0.0 ('Old Town Road + Pony') 64-bit
Writing library : libebml v1.3.9 + v1.5.2

Video
ID : 1
Format : AVC
Format/Info : Advanced Video Codec
Format profile : [email protected]
Format settings : CABAC / 5 Ref Frames
Format settings, CABAC : Yes
Format settings, Reference frames : 5 frames
Codec ID : V_MPEG4/ISO/AVC
Duration : 20 min 58 s
Bit rate : 1 145 kb/s
Width : 1 280 pixels
Height : 720 pixels
Display aspect ratio : 16:9
Frame rate mode : Constant
Frame rate : 23.976 (24000/1001) FPS
Color space : YUV
Chroma subsampling : 4:2:0
Bit depth : 8 bits
Scan type : Progressive
Bits/(Pixel*Frame) : 0.052
Stream size : 172 MiB (58%)
Language : English
Default : Yes
Forced : No
Color range : Limited
Color primaries : BT.709
Transfer characteristics : BT.709
Matrix coefficients : BT.709

Audio #1
ID : 2
Format : AC-3
Format/Info : Audio Coding 3
Commercial name : Dolby Digital
Codec ID : A_AC3
Duration : 20 min 58 s
Bit rate mode : Constant
Bit rate : 192 kb/s
Channel(s) : 2 channels
Channel layout : L R
Sampling rate : 48.0 kHz
Frame rate : 31.250 FPS (1536 SPF)
Compression mode : Lossy
Stream size : 28.8 MiB (10%)
Title : DUB (НЛО TV)
Language : Ukrainian
Service kind : Complete Main
Default : Yes
Forced : No

Audio #2
ID : 3
Format : E-AC-3
Format/Info : Enhanced AC-3
Commercial name : Dolby Digital Plus
Codec ID : A_EAC3
Duration : 20 min 58 s
Bit rate mode : Constant
Bit rate : 640 kb/s
Channel(s) : 6 channels
Channel layout : L R C LFE Ls Rs
Sampling rate : 48.0 kHz
Frame rate : 31.250 FPS (1536 SPF)
Compression mode : Lossy
Stream size : 96.0 MiB (32%)
Title : Original
Language : English
Service kind : Complete Main
Default : No
Forced : No

Text
ID : 4
Format : UTF-8
Codec ID : S_TEXT/UTF8
Codec ID/Info : UTF-8 Plain Text
Duration : 20 min 44 s
Bit rate : 99 b/s
Count of elements : 498
Stream size : 15.1 KiB (0%)
Title : SDH
Language : English
Default : No
Forced : No
Сезон 31
General
Unique ID : 262596026628226004207948516139595342250 (0xC58E27B45FC727157E7CA766E2AA21AA)
Complete name : /mnt/nas/Multimedia/TV shows/The Simpsons (1989)/Season 31/31x01 - The Winter of Our Monetized Content.
Format :
Format version : Version 4
File size : 306 MiB
Duration : 21 min 38 s
Overall bit rate : 1 980 kb/s
Encoded date : UTC 2020-11-08 20:55:02
Writing application : v51.0.0 ('I Wish') 64-bit
Writing library : libebml v1.4.0 + v1.6.2

Video
ID : 1
Format : AVC
Format/Info : Advanced Video Codec
Format profile : [email protected]
Format settings : CABAC / 5 Ref Frames
Format settings, CABAC : Yes
Format settings, Reference frames : 5 frames
Codec ID : V_MPEG4/ISO/AVC
Duration : 21 min 38 s
Bit rate : 1 530 kb/s
Width : 1 280 pixels
Height : 720 pixels
Display aspect ratio : 16:9
Frame rate mode : Constant
Frame rate : 23.976 (24000/1001) FPS
Color space : YUV
Chroma subsampling : 4:2:0
Bit depth : 8 bits
Scan type : Progressive
Bits/(Pixel*Frame) : 0.069
Stream size : 237 MiB (77%)
Language : English
Default : Yes
Forced : No

Audio #1
ID : 2
Format : AC-3
Format/Info : Audio Coding 3
Commercial name : Dolby Digital
Codec ID : A_AC3
Duration : 21 min 38 s
Bit rate mode : Constant
Bit rate : 192 kb/s
Channel(s) : 2 channels
Channel layout : L R
Sampling rate : 48.0 kHz
Frame rate : 31.250 FPS (1536 SPF)
Compression mode : Lossy
Stream size : 29.7 MiB (10%)
Title : DUB (НЛО TV)
Language : Ukrainian
Service kind : Complete Main
Default : Yes
Forced : No

Audio #2
ID : 3
Format : E-AC-3
Format/Info : Enhanced AC-3
Commercial name : Dolby Digital Plus
Codec ID : A_EAC3
Duration : 21 min 38 s
Bit rate mode : Constant
Bit rate : 256 kb/s
Channel(s) : 6 channels
Channel layout : L R C LFE Ls Rs
Sampling rate : 48.0 kHz
Frame rate : 31.250 FPS (1536 SPF)
Compression mode : Lossy
Stream size : 39.6 MiB (13%)
Title : Original
Language : English
Service kind : Complete Main
Default : No
Forced : No

Text
ID : 4
Format : UTF-8
Codec ID : S_TEXT/UTF8
Codec ID/Info : UTF-8 Plain Text
Duration : 21 min 24 s
Bit rate : 99 b/s
Count of elements : 538
Stream size : 15.6 KiB (0%)
Title : Full (SDH)
Language : English
Default : No
Forced : No

Menu
00:00:00.000 : :Chapter 1
00:07:28.375 : :Chapter 2
00:15:27.208 : :Chapter 3
00:20:13.958 : :Chapter 4
Скріншоти







Реклама в роздачі
  • Аудіо: Сімпсони UA у 29x16 на 19:37
  • Аудіо: PikachuUA для hurtom.com у деяких серіях під час фінальних титрів

Анонси каналу FOX відсутні.
Джерела: & & інше.
Джерела детально
Сезон 26: The Simpsons. 26 season ( l 720p l SerGoLeOne) (з rutracker) та https://toloka.to/t79001
Сезон 27: The.Simpsons.S27.720p..3xRus.Ukr.Eng-v.serij2013 (з rutracker)
Сезон 28: The.Simpsons.S28.720p..DD5.1.H264-iT00NZ (з rarbg) та https://toloka.to/t71575
Сезон 29: The.Simpsons.S29.720p.AMZN..3xRus.Ukr.Eng-v.serij2013 (з rutracker)
Сезон 30: The.Simpsons.S30.720p.AMZN..DD+5.1.-QOQ та The.Simpsons.S30.720p.AMZN..DD+5.1.-CtrlHD (з eztv) та https://toloka.to/t103218
Сезон 31: The.Simpsons.S31.720p.HULU..DDP5.1.-CtrlHD (з rarbg) та https://toloka.to/t114268
Окрема подяка за запис та зведення звуку наступним людям: Петров Микола, 4erkov, andic, Bohdan237, Dark Invader, leicheman, PikachuUA, SaiCo, xslim.

Особиста оцінка: 10 - без зайвих вагань рекомендую всім!


Бронзовий реліз (на рейтинг впливає 75% завантаженого)
 Трекер:    Зареєстрований   

Завантажити / скачати мультфільм українською



відео для новачків



 Зареєстрований:   2020-11-09 05:23
 Розмір:   65.09 GB 
 Оцінка мультсеріалу:   10/10 (Голосів: 4)
   
pingwin4eg 
Новенький


З нами з: 11.05.11
Востаннє: 28.03.21
Повідомлень: 7

2020-11-09 05:40  
Додано 31-й сезон.

Приємного перегляду!

panama58 
Свій


З нами з: 05.12.08
Востаннє: 14.04.21
Повідомлень: 76

2020-11-09 19:52  
1080 буде?
pingwin4eg 
Новенький


З нами з: 11.05.11
Востаннє: 28.03.21
Повідомлень: 7

2020-11-09 22:16  
panama58
Я не планую робити 1080.

qarty1 
VIP


З нами з: 01.11.09
Востаннє: 14.04.21
Повідомлень: 417

2021-01-17 23:46  
31 сезон вийшов бомбезний таке враження що дивився старі добрі сімпсони.
burjui.kovalenko 
Новенький


З нами з: 03.11.16
Востаннє: 04.04.21
Повідомлень: 6

2021-03-20 21:43  
Дякую за якість у 720р! жорсткий диск не гумовий - усе не влазе )
Ваш часовий пояс: GMT + 2 Години

Нова тема   Відповісти