До зірок / Ad Astra (2019) UHD Remux 4K 2160p HDR H.265 Ukr/Eng | Sub Ukr/Eng

Нові коментарі

Нова тема   Відповісти
Автор Повідомлення
Anonymous 







2019-12-06 22:21  


До зірок / Ad Astra (2019) UHD Remux 4K 2160p HDR H.265 Ukr/Eng | Sub Ukr/Eng



«Відповіді на наші запитання лежать за межами досяжності»



До зірок / Ad Astra (2019) UHD Remux 4K 2160p HDR H.265 Ukr/Eng | Sub Ukr/Eng



Альтернативні постери

До зірок / Ad Astra (2019) UHD Remux 4K 2160p HDR H.265 Ukr/Eng | Sub Ukr/Eng
До зірок / Ad Astra (2019) UHD Remux 4K 2160p HDR H.265 Ukr/Eng | Sub Ukr/Eng
До зірок / Ad Astra (2019) UHD Remux 4K 2160p HDR H.265 Ukr/Eng | Sub Ukr/Eng
До зірок / Ad Astra (2019) UHD Remux 4K 2160p HDR H.265 Ukr/Eng | Sub Ukr/Eng



Жанр: драма, трилер, фантастика
Країна: США, Китай, Бразилія








Кінокомпанія: 20th Century Fox, New Regency Pictures, Plan B Entertainment
Режисер: Джеймс Ґрей
Актори: Бред Пітт, Томмі Лі Джонс, Рут Негг, Дональд Сазерленд, Кімберлі Еліз, Лорен Дін, Донні Кешаварц, Шон Блейкмор, Боббі Ніш, Ліза Гей Хемілтон


Сюжет:
Батько інженера армійського корпусу Сполучених Штатів Америки Роя МакБрайда двадцять років тому вирушив на посаді капітана корабля з секретною місією на пошуки позаземної цивілізації. Через шістнадцять років після початку експедиції корабель зник. Крім того, стало відомо, що чоловік експериментував із матеріалом, який може поставити під загрозу існування всього живого у Всесвіті. Настав час самого Роя відправитися на пошуки батька, а також, щоб розібратися з цими експериментами. Ця подорож відкриє багато секретів, які по-новому покажуть людське існування та наше місце в космосі. Якщо його батько шукав нові цивілізації, то сам Рой повинен врятувати нашу.



Тривалість: 02:03:02
Якість: UHD Remux 4K 2160p

Відео:
кодек: H.265 (HEVC)
розмір кадру: 3840x2160
бітрейт: 47900 кб/с
бітова глибина: 10 біт
кольоровий простір: BT.2020 (HDR)

Аудіо # 1:
мова: українська
переклад: професійний дубльований
кодек: 5.1
бітрейт: 384 кб/с

Аудіо # 2:
мова: українська
переклад: професійний дубльований
кодек: 2.0
бітрейт: 192 кб/с

Аудіо # 3:
мова: англійська
переклад: оригінал
кодек: 5.1
бітрейт: 640 кб/с

Аудіо # 4:
мова: англійська
переклад: оригінал
кодек: TrueHD + Atmos 7.1
бітрейт: 3388 кб/с

Джерело озвучення:


Субтитри (Forced, FuLL):
мова: українська
тип: програмні (м'які)
формат: *.srt

Субтитри (SDH):
мова: англійська
тип: програмні (м'які)
формат: *.srt

Info
Код:
General
Complete name                            : Ad Astra (2019) UHD Remux 4K 2160p HDR H.265 (HEVC) [UKR_ENG] [ViDeO_Hurtom].
Format                                   :
Format version                           : Version 4
File size                                : 45.2 GiB
Duration                                 : 2 h 3 min
Overall bit rate mode                    : Variable
Overall bit rate                         : 52.6 Mb/s
Encoded date                             : UTC 2020-05-09 06:53:59
Writing application                      : v30.1.0 ('Forever And More') 64-bit
Writing library                          : libebml v1.3.6 + v1.4.9
Cover                                    : Yes
Attachments                              : cover.jpg

Video
ID                                       : 1
Format                                   : HEVC
Format/Info                              : High Efficiency Video Coding
Commercial name                          : HDR10
Format profile                           : Main [email protected]@High
Codec ID                                 : V_MPEGH/ISO/HEVC
Duration                                 : 2 h 3 min
Bit rate                                 : 47.9 Mb/s
Width                                    : 3 840 pixels
Height                                   : 2 160 pixels
Display aspect ratio                     : 16:9
Frame rate mode                          : Constant
Frame rate                               : 23.976 (24000/1001) FPS
Color space                              : YUV
Chroma subsampling                       : 4:2:0 (Type 2)
Bit depth                                : 10 bits
Bits/(Pixel*Frame)                       : 0.241
Stream size                              : 41.2 GiB (91%)
Language                                 : English
Default                                  : Yes
Forced                                   : No
Color range                              : Limited
Color primaries                          : BT.2020
Transfer characteristics                 : PQ
Matrix coefficients                      : BT.2020 non-constant
Mastering display color primaries        : Display P3
Mastering display luminance              : min: 0.0050 cd/m2, max: 1000 cd/m2

Audio #1
ID                                       : 2
Format                                   : AC-3
Format/Info                              : Audio Coding 3
Commercial name                          : Dolby Digital
Codec ID                                 : A_AC3
Duration                                 : 2 h 3 min
Bit rate mode                            : Constant
Bit rate                                 : 384 kb/s
Channel(s)                               : 6 channels
Channel layout                           : L R C LFE Ls Rs
Sampling rate                            : 48.0 kHz
Frame rate                               : 31.250 FPS (1536 SPF)
Bit depth                                : 16 bits
Compression mode                         : Lossy
Stream size                              : 338 MiB (1%)
Title                                    : 48 kHz, , 5.1, 384 Kbps
Language                                 : Ukrainian
Service kind                             : Complete Main
Default                                  : Yes
Forced                                   : No

Audio #2
ID                                       : 3
Format                                   : AC-3
Format/Info                              : Audio Coding 3
Commercial name                          : Dolby Digital
Codec ID                                 : A_AC3
Duration                                 : 2 h 3 min
Bit rate mode                            : Constant
Bit rate                                 : 192 kb/s
Channel(s)                               : 2 channels
Channel layout                           : L R
Sampling rate                            : 48.0 kHz
Frame rate                               : 31.250 FPS (1536 SPF)
Bit depth                                : 16 bits
Compression mode                         : Lossy
Stream size                              : 169 MiB (0%)
Title                                    : 48 kHz, , 2.0, 192 Kbps
Language                                 : Ukrainian
Service kind                             : Complete Main
Default                                  : No
Forced                                   : No

Audio #3
ID                                       : 4
Format                                   : AC-3
Format/Info                              : Audio Coding 3
Commercial name                          : Dolby Digital
Codec ID                                 : A_AC3
Duration                                 : 2 h 3 min
Bit rate mode                            : Constant
Bit rate                                 : 640 kb/s
Channel(s)                               : 6 channels
Channel layout                           : L R C LFE Ls Rs
Sampling rate                            : 48.0 kHz
Frame rate                               : 31.250 FPS (1536 SPF)
Bit depth                                : 16 bits
Compression mode                         : Lossy
Stream size                              : 563 MiB (1%)
Title                                    : 48 kHz, , 5.1, 640 Kbps
Language                                 : English
Service kind                             : Complete Main
Default                                  : No
Forced                                   : No

Audio #4
ID                                       : 5
Format                                   : MLP FBA 16-ch
Format/Info                              : Meridian Lossless Packing FBA with 16-channel presentation
Commercial name                          : Dolby TrueHD with Dolby Atmos
Codec ID                                 : A_TRUEHD
Duration                                 : 2 h 3 min
Bit rate mode                            : Variable
Bit rate                                 : 3 388 kb/s
Maximum bit rate                         : 6 165 kb/s
Channel(s)                               : 8 channels
Channel layout                           : L R C LFE Ls Rs Lb Rb
Sampling rate                            : 48.0 kHz
Frame rate                               : 1 200.000 FPS (40 SPF)
Compression mode                         : Lossless
Stream size                              : 2.91 GiB (6%)
Title                                    : 48 kHz, TrueHD, 7.1, 3388 Kbps
Language                                 : English
Default                                  : No
Forced                                   : No
Number of dynamic objects                : 13
Bed channel count                        : 1 channel
Bed channel configuration                : LFE

Text #1
ID                                       : 6
Format                                   : UTF-8
Codec ID                                 : S_TEXT/UTF8
Codec ID/Info                            : UTF-8 Plain Text
Duration                                 : 2 h 2 min
Bit rate                                 : 1 b/s
Count of elements                        : 27
Stream size                              : 1.17 KiB (0%)
Title                                    : Forced
Language                                 : Ukrainian
Default                                  : Yes
Forced                                   : No

Text #2
ID                                       : 7
Format                                   : UTF-8
Codec ID                                 : S_TEXT/UTF8
Codec ID/Info                            : UTF-8 Plain Text
Duration                                 : 2 h 2 min
Bit rate                                 : 68 b/s
Count of elements                        : 1082
Stream size                              : 61.3 KiB (0%)
Title                                    : Full
Language                                 : Ukrainian
Default                                  : No
Forced                                   : No

Text #3
ID                                       : 8
Format                                   : UTF-8
Codec ID                                 : S_TEXT/UTF8
Codec ID/Info                            : UTF-8 Plain Text
Duration                                 : 1 h 50 min
Bit rate                                 : 50 b/s
Count of elements                        : 1389
Stream size                              : 41.1 KiB (0%)
Title                                    : SDH
Language                                 : English
Default                                  : No
Forced                                   : No

Menu
00:00:00.000                             : en:Chapter 01
00:04:22.679                             : en:Chapter 02
00:08:48.695                             : en:Chapter 03
00:16:25.776                             : en:Chapter 04
00:22:33.811                             : en:Chapter 05
00:30:08.515                             : en:Chapter 06
00:35:08.273                             : en:Chapter 07
00:40:33.348                             : en:Chapter 08
00:44:45.391                             : en:Chapter 09
00:48:56.809                             : en:Chapter 10
00:53:51.812                             : en:Chapter 11
00:56:43.775                             : en:Chapter 12
01:01:31.897                             : en:Chapter 13
01:07:23.873                             : en:Chapter 14
01:12:12.411                             : en:Chapter 15
01:16:59.114                             : en:Chapter 16
01:21:35.182                             : en:Chapter 17
01:24:42.661                             : en:Chapter 18
01:31:16.554                             : en:Chapter 19
01:36:27.031                             : en:Chapter 20
01:40:59.595                             : en:Chapter 21
01:46:26.589                             : en:Chapter 22
01:50:00.052                             : en:Chapter 23
01:53:17.791                             : en:Chapter 24

Скріншоти


Джерело: &
Особиста оцінка: 8 - мені сподобалося
Увага! Перед завантаженням переконайтесь, що ваш пристрій відтворення (та/або ПЗ) підтримує H.265 (HEVC)


До зірок / Ad Astra (2019) UHD Remux 4K 2160p HDR H.265 Ukr/Eng | Sub Ukr/Eng




Золотий реліз (завантажене не впливає на рейтинг)
 Трекер:    Зареєстрований   

Завантажити / скачати фільм українською



відео для новачків



 Зареєстрований:   2020-05-09 10:39
 Розмір:   45.2 GB 
 Оцінка фільму:   8.7/10 (Голосів: 35)
   
Інші релізи
   До зірок / Ad Astra (2019) Remux 1080p Ukr/Eng | Sub Ukr/Eng antik_2008  0 / 0   27.43 GB   2020-05-09 12:46 
   До зірок / Ad Astra (2019) UHD 1080p H.265 Ukr/Eng | Sub Ukr/Eng -Star-Lord-  6 / 0   13.3 GB   2020-05-08 23:58 
   До зірок / Ad Astra (2019) Ukr/Eng | Sub Ukr/Eng antik_2008  4 / 0   2.1 GB   2020-05-08 23:52 
   До зірок / Ad Astra (2019) 1080p Ukr/Eng | Sub Ukr/Eng antik_2008  7 / 0   10.89 GB   2020-05-08 22:42 
   До зірок / Ad Astra (2019) 720p Ukr/Eng | Sub Ukr/Eng 11FrYkT  1 / 0   4.6 GB   2020-05-08 21:54 
   До зірок / Ad Astra (2019) AVC Ukr/Eng | Sub Ukr/Eng 11FrYkT  5 / 0   2.1 GB   2020-05-08 21:45 
   До зірок / Ad Astra (2019) 1080p Ukr/Eng | Sub Ukr/Eng igor911  16 / 0   7.95 GB   2019-12-04 11:21 
Cerguk 
Свій


З нами з: 30.09.09
Востаннє: 19.09.20
Повідомлень: 106

2019-12-07 14:46  
Хороша фантастика, хоч і без екшену, зоряних воїн і світлових мечів. Happy
Але після перегляду в мене лищилось 2 незрозумілих моменти, може хто прояснить:
1)
наприкінці фільму яким це чином з тою бляхою в руках він зміг так довго летіти ПРОТИ всього руху летівшого йому в морду каміння/метеоритів чи що воно там таке в тих кільцях Сатурна ?? це в нього такий "суперпіддув" з ранця фігачив ?
2)
то що ж там таке з тим кораблем проекту "Ліма" змогли вчверити, що за суперзброю з нього витворили, що він такі імпульси на півгалактики посилав що все кругом виходило з ладу і горіло ??! За наслідками це ж якось виглядає набагато потужніше ніж вибухи на сонці, а як 1 корабель може бути потужніший за Сонце ?

артикул 
Частий відвідувач


З нами з: 31.12.08
Востаннє: 19.09.20
Повідомлень: 27

2019-12-09 23:44  
От в мене питання ті ж самі, але їх штук ще з десяток: якось воно все не в"яжеться. в загальному, от як би Інтерстелар знімали в Україні, вийшов би цей фільм.
Petrovcheg 
Новенький


З нами з: 10.01.17
Востаннє: 19.09.20
Повідомлень: 14

2019-12-22 23:51  
На жаль, до наукової фантастики цьому фільму так само далеко як тихоокеанському рубежу. Але якщо там є веселе піу-піу, то тут немає нічого: наукового обгрунтування ніякого, героям не віриш і не співпереживаєш, рішення та дії персонажів не логічні, а часто і абсурдні. Дві години нудної фантазії на вільну тему.
Фільм впевнено виборює почесне "розчарування року", випереджаючи, навіть, Рембо.

electus 
Новенький


З нами з: 01.02.11
Востаннє: 04.09.20
Повідомлень: 14

2019-12-23 00:11  
Наче крутий фільм про космос і майбутнє, але щось йому не вистачає...
Garikafterwork 
Частий відвідувач


З нами з: 02.10.12
Востаннє: 18.09.20
Повідомлень: 30

2019-12-28 12:37  
До "Інтерстеллар" не дотягнув. Але фільм гарний.
Wensun 
Поважний учасник


З нами з: 20.01.09
Востаннє: 17.09.20
Повідомлень: 180

2019-12-30 19:43  
трешово ніпрошо..... 1/10,
Nikko033 
VIP


З нами з: 31.12.12
Востаннє: 20.09.20
Повідомлень: 622

2020-01-10 19:35  
гарний фільм, хоч і не без косяків. дуже сподобався візуал і операторська робота, але найкрутіше в фільмі показана відірваність і самотність головного героя, який навіть на Землі був неначе в холодному і темному космосі один, замкнутий в собі. а взагалі кіно, якщо хтось не зрозумів, про те, як психологічна травма через втрату батька і сум за ним позначились на всьому житті героя Пітта та як прийшлось полетіти до Нептуна, щоб нарешті подолати їх і попрощатись. хоча для декого фільм ні про що... 9/10
пане Wensun ви б спочатку дізнались, що таке треш =_=

[email protected] 
Відео Гуртом - підтримка та поширення
Відео Гуртом - підтримка та поширення


З нами з: 16.06.12
Востаннє: 18.09.20
Повідомлень: 1427

2020-01-19 10:50  
Фільм чудовий, нагадує перші кроки мореплавців на інші континенти, чудово показано психологічну підготовку астронавта до виконання місії. Якщо порівнювати із Марсіанином, то трохи не вистачає наукової фантастики. А так бомба як для свого класу. Бред Піт зіграв чудово.
+380954897458 
VIP


З нами з: 02.06.17
Востаннє: 18.09.20
Повідомлень: 942

2020-01-19 11:26  
Cerguk
То були кільця Нептуна.

alessander 
Новенький


З нами з: 01.07.16
Востаннє: 21.06.20
Повідомлень: 2

2020-04-13 14:26  
Напевно, найгірший фільм про космос, в усілякому разі з тих, що я бачив, а космокіно я люблю понад усе.
За рівнем антинауковості та фейлів "перевершує" навіть СтарВорз і, вибачаюсь за матюки, СтарТрек (серіал).
Насилу довивившись це лайно, вирішив поцікавитись хто режисер та сценарист, щоб більш ніколи на них не потрапляти. Бо знівичити таку тему і такий акторский склад - це треба мати справжній "талант".

Anonymous 







2020-05-09 10:39  
Торент файл оновлено. Додано 5.1
Ваш часовий пояс: GMT + 2 Години

Нова тема   Відповісти