До зірок / Ad Astra (2019) Remux 1080p Ukr/Eng | Sub Ukr/Eng

Нові коментарі

Нова тема   Відповісти
Останній раз роздавалося piotr1965 (2020-09-19)
Автор Повідомлення
Anonymous 







2019-12-06 01:00  


До зірок / Ad Astra (2019) Remux 1080p Ukr/Eng | Sub Ukr/Eng



«Відповіді на наші запитання лежать за межами досяжності»



До зірок / Ad Astra (2019) Remux 1080p Ukr/Eng | Sub Ukr/Eng



Альтернативні постери

До зірок / Ad Astra (2019) Remux 1080p Ukr/Eng | Sub Ukr/Eng
До зірок / Ad Astra (2019) Remux 1080p Ukr/Eng | Sub Ukr/Eng
До зірок / Ad Astra (2019) Remux 1080p Ukr/Eng | Sub Ukr/Eng
До зірок / Ad Astra (2019) Remux 1080p Ukr/Eng | Sub Ukr/Eng



Жанр: драма, трилер, фантастика
Країна: США, Китай, Бразилія








Кінокомпанія: 20th Century Fox, New Regency Pictures, Plan B Entertainment
Режисер: Джеймс Ґрей
Актори: Бред Пітт, Томмі Лі Джонс, Рут Негг, Дональд Сазерленд, Кімберлі Еліз, Лорен Дін, Донні Кешаварц, Шон Блейкмор, Боббі Ніш, Ліза Гей Хемілтон


Сюжет:
Батько інженера армійського корпусу Сполучених Штатів Америки Роя МакБрайда двадцять років тому вирушив на посаді капітана корабля з секретною місією на пошуки позаземної цивілізації. Через шістнадцять років після початку експедиції корабель зник. Крім того, стало відомо, що чоловік експериментував із матеріалом, який може поставити під загрозу існування всього живого у Всесвіті. Настав час самого Роя відправитися на пошуки батька, а також, щоб розібратися з цими експериментами. Ця подорож відкриє багато секретів, які по-новому покажуть людське існування та наше місце в космосі. Якщо його батько шукав нові цивілізації, то сам Рой повинен врятувати нашу.



Тривалість: 02:03:02
Якість: Blu-Ray Remux 1080p
Відео:
кодек:
розмір кадру: 1920x1080
бітрейт: ~26900 кб/с

Аудіо # 1:
мова: українська
переклад: професійний дубльований
кодек: 5.1
бітрейт: 384 кб/с

Аудіо # 2:
мова: англійська
переклад: оригінал
кодек: -HD MA 7.1
бітрейт: 4643 кб/с

Джерело озвучення:


Субтитри: (Forced, Full)
мова: українська
тип: програмні (м'які)
формат: *.srt

Субтитри: (Full, SDH)
мова: англійська
тип: програмні (м'які)
формат: *.srt

Info
Код:
General
Complete name                            : Ad Astra (2019) Remux 1080p [ukr,eng] [ViDeO_Hurtom].
Format                                   :
Format version                           : Version 4
File size                                : 27.4 GiB
Duration                                 : 2 h 3 min
Overall bit rate mode                    : Variable
Overall bit rate                         : 31.9 Mb/s
Encoded date                             : UTC 2020-05-09 09:19:25
Writing application                      : v30.1.0 ('Forever And More') 64-bit
Writing library                          : libebml v1.3.6 + v1.4.9
Cover                                    : Yes
Attachments                              : cover.jpg

Video
ID                                       : 1
Format                                   : AVC
Format/Info                              : Advanced Video Codec
Format profile                           : [email protected]
Format settings                          : CABAC / 2 Ref Frames
Format settings, CABAC                   : Yes
Format settings, RefFrames               : 2 frames
Codec ID                                 : V_MPEG4/ISO/AVC
Duration                                 : 2 h 3 min
Bit rate mode                            : Variable
Bit rate                                 : 26.9 Mb/s
Width                                    : 1 920 pixels
Height                                   : 1 080 pixels
Display aspect ratio                     : 16:9
Frame rate mode                          : Constant
Frame rate                               : 23.976 (24000/1001) FPS
Color space                              : YUV
Chroma subsampling                       : 4:2:0
Bit depth                                : 8 bits
Scan type                                : Progressive
Bits/(Pixel*Frame)                       : 0.541
Stream size                              : 23.1 GiB (84%)
Language                                 : English
Default                                  : Yes
Forced                                   : No

Audio #1
ID                                       : 2
Format                                   : AC-3
Format/Info                              : Audio Coding 3
Commercial name                          : Dolby Digital
Codec ID                                 : A_AC3
Duration                                 : 2 h 3 min
Bit rate mode                            : Constant
Bit rate                                 : 384 kb/s
Channel(s)                               : 6 channels
Channel layout                           : L R C LFE Ls Rs
Sampling rate                            : 48.0 kHz
Frame rate                               : 31.250 FPS (1536 SPF)
Bit depth                                : 16 bits
Compression mode                         : Lossy
Stream size                              : 338 MiB (1%)
Title                                    : , 5.1, 384 Kbps
Language                                 : Ukrainian
Service kind                             : Complete Main
Default                                  : Yes
Forced                                   : No

Audio #2
ID                                       : 3
Format                                   : XLL
Format/Info                              : Digital Theater Systems
Commercial name                          : -HD Master Audio
Codec ID                                 : A_DTS
Duration                                 : 2 h 3 min
Bit rate mode                            : Variable
Bit rate                                 : 4 643 kb/s
Channel(s)                               : 8 channels
Channel layout                           : C L R LFE Lb Rb Lss Rss
Sampling rate                            : 48.0 kHz
Frame rate                               : 93.750 FPS (512 SPF)
Bit depth                                : 24 bits
Compression mode                         : Lossless
Stream size                              : 3.99 GiB (15%)
Title                                    : -HD MA, 7.1, 4643 Kbps
Language                                 : English
Default                                  : No
Forced                                   : No

Text #1
ID                                       : 4
Format                                   : UTF-8
Codec ID                                 : S_TEXT/UTF8
Codec ID/Info                            : UTF-8 Plain Text
Duration                                 : 2 h 2 min
Bit rate                                 : 1 b/s
Count of elements                        : 27
Stream size                              : 1.17 KiB (0%)
Title                                    : Forced
Language                                 : Ukrainian
Default                                  : Yes
Forced                                   : No

Text #2
ID                                       : 5
Format                                   : UTF-8
Codec ID                                 : S_TEXT/UTF8
Codec ID/Info                            : UTF-8 Plain Text
Duration                                 : 2 h 2 min
Bit rate                                 : 68 b/s
Count of elements                        : 1082
Stream size                              : 61.3 KiB (0%)
Title                                    : Full
Language                                 : Ukrainian
Default                                  : No
Forced                                   : No

Text #3
ID                                       : 6
Format                                   : UTF-8
Codec ID                                 : S_TEXT/UTF8
Codec ID/Info                            : UTF-8 Plain Text
Duration                                 : 2 h 0 min
Bit rate                                 : 43 b/s
Count of elements                        : 1261
Stream size                              : 38.7 KiB (0%)
Title                                    : Full
Language                                 : English
Default                                  : No
Forced                                   : No

Text #4
ID                                       : 7
Format                                   : UTF-8
Codec ID                                 : S_TEXT/UTF8
Codec ID/Info                            : UTF-8 Plain Text
Duration                                 : 1 h 50 min
Bit rate                                 : 50 b/s
Count of elements                        : 1389
Stream size                              : 41.1 KiB (0%)
Title                                    : SDH
Language                                 : English
Default                                  : No
Forced                                   : No

Menu
00:00:00.003                             : en:Глава 01
00:04:22.682                             : en:Глава 02
00:08:48.698                             : en:Глава 03
00:16:25.779                             : en:Глава 04
00:22:33.814                             : en:Глава 05
00:30:08.518                             : en:Глава 06
00:35:08.276                             : en:Глава 07
00:40:33.351                             : en:Глава 08
00:44:45.394                             : en:Глава 09
00:48:56.812                             : en:Глава 10
00:53:51.815                             : en:Глава 11
00:56:43.778                             : en:Глава 12
01:01:31.900                             : en:Глава 13
01:07:23.876                             : en:Глава 14
01:12:12.414                             : en:Глава 15
01:16:59.117                             : en:Глава 16
01:21:35.185                             : en:Глава 17
01:24:42.664                             : en:Глава 18
01:31:16.557                             : en:Глава 19
01:36:27.034                             : en:Глава 20
01:40:59.598                             : en:Глава 21
01:46:26.592                             : en:Глава 22
01:50:00.055                             : en:Глава 23
01:53:17.794                             : en:Глава 24

Скріншоти




Джерело: &
Особиста оцінка: 8 - мені сподобалося


До зірок / Ad Astra (2019) Remux 1080p Ukr/Eng | Sub Ukr/Eng




Золотий реліз (завантажене не впливає на рейтинг)
 Трекер:    Зареєстрований   

Завантажити / скачати фільм українською



відео для новачків



 Зареєстрований:   2020-05-09 12:46
 Розмір:   27.43 GB 
 Оцінка фільму:   8.5/10 (Голосів: 35)
   
Інші релізи
   До зірок / Ad Astra (2019) UHD Remux 4K 2160p HDR H.265 Ukr/Eng | Sub Ukr/Eng antik_2008  8 / 0   45.2 GB   2020-05-09 10:39 
   До зірок / Ad Astra (2019) UHD 1080p H.265 Ukr/Eng | Sub Ukr/Eng -Star-Lord-  6 / 0   13.3 GB   2020-05-08 23:58 
   До зірок / Ad Astra (2019) Ukr/Eng | Sub Ukr/Eng antik_2008  6 / 0   2.1 GB   2020-05-08 23:52 
   До зірок / Ad Astra (2019) 1080p Ukr/Eng | Sub Ukr/Eng antik_2008  7 / 0   10.89 GB   2020-05-08 22:42 
   До зірок / Ad Astra (2019) 720p Ukr/Eng | Sub Ukr/Eng 11FrYkT  2 / 0   4.6 GB   2020-05-08 21:54 
   До зірок / Ad Astra (2019) AVC Ukr/Eng | Sub Ukr/Eng 11FrYkT  4 / 0   2.1 GB   2020-05-08 21:45 
   До зірок / Ad Astra (2019) 1080p Ukr/Eng | Sub Ukr/Eng igor911  19 / 0   7.95 GB   2019-12-04 11:21 
iJuggernaut 
Частий відвідувач


З нами з: 14.12.14
Востаннє: 15.06.20
Повідомлень: 30

2019-12-07 11:03  
ходив в кінотеатер на нього, і пішов би ще не раз.
це не космічна пригода в стилі месників та їм подібних, елементи бою є теж, але атмосфера фільму неймовірна, я був поглинений нею.
чудовий фільм, навіть сказати нічого більше...

Judgment Day 
Свій


З нами з: 05.08.18
Востаннє: 20.09.20
Повідомлень: 133

2019-12-07 12:02  
Шкода, що не зміг сходити на цей фільм у кінотеатр, але з радістю цей фільм скачаю і подивлюсь. Тим більше, останні 15 років Пітт дуже сильно радує тим, як виріс
_sergius 
Свій


З нами з: 26.03.11
Востаннє: 16.09.20
Повідомлень: 103

2019-12-08 11:45  
А мені фільм відверто не сподобався. Очікував набагато більшого.
kryk-v.ya. 
Попереджень: 1
Попереджень: 1 


З нами з: 14.02.14
Востаннє: 20.09.20
Повідомлень: 2238

2019-12-14 23:19  
фільм просто супер, навіть не очікував такого...
dr-jazz 
Новенький


З нами з: 22.09.10
Востаннє: 13.09.20
Повідомлень: 16

2019-12-15 19:37  
Не подужав цей фільм, хоча майже до кінця додивився.
Усе якось монотонно і повільно.
Хоча пару моментів цікавих було.

подвох 
Частий відвідувач


З нами з: 29.03.18
Востаннє: 19.09.20
Повідомлень: 46

2019-12-15 20:16  
дуже добре, атмосферно
Neolo 
Свій


З нами з: 13.11.10
Востаннє: 20.09.20
Повідомлень: 143

2019-12-18 23:00  
Нереальне сміття. Згаяв 2 години ні на що.
MakRA 
VIP


З нами з: 11.11.18
Востаннє: 20.09.20
Повідомлень: 1118

2019-12-19 00:00  
Шикарний фільм! Атмосферний!
AlbertTol 
Частий відвідувач


З нами з: 12.11.17
Востаннє: 19.09.20
Повідомлень: 38

2019-12-19 00:32  
Якась шляпа. Витримав півгодини.
blazebayley 
Новенький


З нами з: 02.05.16
Востаннє: 15.09.20
Повідомлень: 13

2019-12-24 15:44  
ШИКАРНО!!
ВАВУНЯ 
VIP


З нами з: 30.06.15
Востаннє: 19.09.20
Повідомлень: 297

2019-12-25 16:23  
так хотів піти на цю стрічку до кінотеатру, але після завантаження та перегляду усвідомив, що краще читати коментарі, аніж дивитись рекламу... добре, що не витратив даремно грошей.
нудне "Абищо"! буває феєричне "Абищо", а тут навіть спецефектів нормальних не було - нудно, безглуздо і нецікаво... додивився з третьої спроби.
3/10

SergiusTheBest 
Новенький


З нами з: 17.03.17
Востаннє: 18.09.20
Повідомлень: 6

2020-01-02 17:34  
Бездарне лайно, але про космос. Один з найгірших фільмів, що дивився останнім часом.
vishnu 
Свій


З нами з: 06.10.15
Востаннє: 19.09.20
Повідомлень: 117

2020-01-05 15:11  
Краще би Зеленський знявся в головній ролі. Зробили всіх ще раз.
Бред Пітт наче в президенти не балотувався, то навіщо в такому гімняному фільмі знявся не зрозуміло.

Judgment Day 
Свій


З нами з: 05.08.18
Востаннє: 20.09.20
Повідомлень: 133

2020-01-27 21:52  
Цілком пристойний фільм. Візуальна складова і музика на висоті.
Anonymous 







2020-05-09 12:47  
Торент файл оновлено. Заміна аудіо на @ 5.1 , 384 Kbps 
Anonymous 







2020-08-17 00:03  
Гарний фільм.
Ваш часовий пояс: GMT + 2 Години

Нова тема   Відповісти