Вікінги (Сезон 6, серії 1-7) / Vikings (Season 6, edisodes 1-7) (2019) 720p Ukr/Eng

Нові коментарі

Нова тема   Відповісти
Автор Повідомлення
DniproFilm 
VIP


З нами з: 10.10.18
Востаннє: 22.01.20
Повідомлень: 331

2019-12-05 22:28  
Вікінги (Сезон 6, серії 1-7) / Vikings (Season 6, edisodes 1-7) (2019) 720р Ukr/Eng

Вікінги (Сезон 6, серії 1-7) / Vikings (Season 6, edisodes 1-7) (2019) 720p Ukr/Eng


Жанр: драма, історичний, екшн
Країна: Ірландія, Канада



Кінокомпанія / телеканал: MGM Television
Режисер: Майкл Хйорст
Актори/ролі озвучують:Густав Скарсгард (Флокі), Кетрін Винник "Катруся Вінницька" (Лаґерта), Олександр Людвіг (Бйорн) та інші

Сюжет:
Ще не так давно Раґнар Лодброк був звичайнісіньким вікінгом, який мріяв про великі завоювання і хотів прославити свій народ. Через деякий час йому вдалося знайти соратників і не тільки скинути колишніх правителів, а й набратися хоробрості, щоб відправитися в украй небезпечне і непередбачувану подорож для легендарних завоювань. Вікінги голосно заявили про себе, змогли перемогти кілька дійсно сильних армій, завоювати неприступне місто Париж і, здавалося б, вирішити між собою всі розбіжності. Але боротьба за владу не вщухає, а це загрожує новими проблемами і війнами.


Тривалість: 1 серія: ~ 45 хв. (цілком серій: 20)
Перелік серій

01. New Beginnings
02. The Prophet
03. Ghosts, Gods and Running Dogs
04. All the Prisoners
05. The Key
06. Death and the Serpent
07. The Ice Maiden
08. Valhalla Can Wait
09. Resurrection
10. - TBA -
11. - TBA -
12. - TBA -
13. - TBA -
14. - TBA -
15. - TBA -
16. - TBA -
17. - TBA -
18. - TBA -
19. - TBA -
20. - TBA -
Якість:
Відео:
кодек:
розмір кадру: 1280x720
бітрейт: ~4000 кб/с

Аудіо # 1:
мова: українська
переклад: двоголосий закадровий
кодек: 5.1
бітрейт: 384 кб/с

Аудіо # 2:
мова: англійська
переклад: оригінал
кодек: 5.1
бітрейт: 640 кб/с

Джерело озвучення:
DniproFilm
Info

Video
ID : 1
Format : AVC
Format/Info : Advanced Video Codec
Format profile : [email protected]
Format settings : CABAC / 4 Ref Frames
Format settings, CABAC : Yes
Format settings, Reference : 4 frames
Codec ID : V_MPEG4/ISO/AVC
Duration : 45 min 38 s
Bit rate : 3 953 kb/s
Width : 1 280 pixels
Height : 720 pixels
Display aspect ratio : 16:9
Frame rate mode : Constant
Frame rate : 23.976 (24000/1001) FPS
Color space : YUV
Chroma subsampling : 4:2:0
Bit depth : 8 bits
Scan type : Progressive
Bits/(Pixel*Frame) : 0.179
Stream size : 1.26 GiB (79%)
Language : English
Default : Yes
Forced : No
Color range : Limited
Color primaries : BT.709
Transfer characteristics : BT.709
Matrix coefficients : BT.709

Audio #1
ID : 2
Format : AC-3
Format/Info : Audio Coding 3
Commercial name : Dolby Digital
Codec ID : A_AC3
Duration : 45 min 38 s
Bit rate mode : Constant
Bit rate : 384 kb/s
Channel(s) : 6 channels
Channel layout : L R C LFE Ls Rs
Sampling rate : 48.0 kHz
Frame rate : 31.250 FPS (1536 SPF)
Compression mode : Lossy
Stream size : 125 MiB (8%)
Title : DniproFilm
Language : Ukrainian
Service kind : Complete Main
Default : Yes
Forced : No

Audio #2
ID : 3
Format : AC-3
Format/Info : Audio Coding 3
Commercial name : Dolby Digital
Codec ID : A_AC3
Duration : 45 min 38 s
Bit rate mode : Constant
Bit rate : 640 kb/s
Channel(s) : 6 channels
Channel layout : L R C LFE Ls Rs
Sampling rate : 48.0 kHz
Frame rate : 31.250 FPS (1536 SPF)
Compression mode : Lossy
Stream size : 209 MiB (13%)
Language : English
Service kind : Complete Main
Default : No
Forced : No
Скріншоти




Авторський реліз (завантажувати можна без реєстрації)
 Трекер:    Зареєстрований   

Завантажити / скачати серіал українською



відео для новачків



 Зареєстрований:   2020-01-22 19:54
 Розмір:   10.86 GB 
 Оцінка серіалу:   9.9/10 (Голосів: 22)
   
DniproFilm 
VIP


З нами з: 10.10.18
Востаннє: 22.01.20
Повідомлень: 331

2019-12-12 14:02  
Оновлено. Додано 3 серію.

DniproFilm 
VIP


З нами з: 10.10.18
Востаннє: 22.01.20
Повідомлень: 331

2019-12-19 12:23  
Оновлено. Додано 4 серію.

DniproFilm 
VIP


З нами з: 10.10.18
Востаннє: 22.01.20
Повідомлень: 331

2020-01-02 14:00  
Оновлено. Додано 5 серію.

Yurassickpark 
Новенький


З нами з: 20.10.13
Востаннє: 23.01.20
Повідомлень: 21

2020-01-10 19:04  
Далі буде?
DniproFilm 
VIP


З нами з: 10.10.18
Востаннє: 22.01.20
Повідомлень: 331

2020-01-11 17:46  
Оновлено. Додано 6 серію.

DniproFilm 
VIP


З нами з: 10.10.18
Востаннє: 22.01.20
Повідомлень: 331

2020-01-22 19:55  
Оновлено. Додано 7 серію.

Ваш часовий пояс: GMT + 2 Години

Нова тема   Відповісти