Смертельне полювання / Death hunt (1981) AVC Ukr/Eng | sub Eng

Нові коментарі

Нова тема   Відповісти
Автор Повідомлення
Arsenfpu 
Відео Гуртом - фільмокрай
Відео Гуртом - фільмокрай


З нами з: 30.04.09
Востаннє: 23.02.20
Повідомлень: 6499

2019-12-05 22:27  
Смертельне полювання / Death hunt (1981) AVC Ukr/Eng | sub Eng

Смертельне полювання / Death hunt (1981) AVC Ukr/Eng | sub Eng


Жанр: екшн, пригодницький, кримінальний
Країна: США, Гонконг



Кінокомпанія: Golden Harvest Company, Northshore Investments Ltd
Режисер: Пітер Р. Хант
Актори: Чарльз Бронсон, Лі Марвін, Ендрю Стівенс, Карл Везерс, Ед Лаутер, Скотт Хіландс, Енджі Дікінсон

Сюжет:
У Скелястих горах під час собачих боїв Альберт Джонсон рятує від натовпу напівмертвого пса, набивши пику його хазяїну. Той збирається йому помститися, але невдало. Кількох людей Джонсон підстрелив. Місцевий представник закону, крутий Едгар Міллен, змушений влаштувати на Джонсона полювання, хоча і підозрює, що той невинний. До полювання приєднуються усі любителі повеселитися. Але полювання за нагородою виявляється досить небезпечним для багатьох з мисливців ...


Тривалість: 01:37:04
Якість:
Відео:
кодек:
розмір кадру: 1 024 х 560
бітрейт: 2 499 кб/с

Аудіо # 1:
мова: українська
переклад: двоголосий закадровий
кодек: 2.0
бітрейт: 192 кб/с

Аудіо # 2:
мова: англійська
переклад: оригінал
кодек: 2.0
бітрейт: 192 кб/с

Субтитри:
мова: англійська
тип: програмні (м'які)
формат: *.srt
Про файл
General
Unique ID : 95398580127984895167999427761981746185 (0x47C519246CCBA38CB9764B078F31EC09)
Complete name : C:\Death hunt (1981) [Ukr,Eng] AVC [Hurtom].
Format :
Format version : Version 4 / Version 2
File size : 1.96 GiB
Duration : 1 h 37 min
Overall bit rate : 2 885 kb/s
Movie name : Смертельне полювання / Death hunt (1981)
Encoded date : UTC 2019-12-05 20:13:43
Writing application : v21.0.0 ('Tardigrades Will Inherit The Earth') 32-bit
Writing library : libebml v1.3.5 + v1.4.8
Cover : Yes
Attachments : cover.jpg

Video
ID : 1
Format : AVC
Format/Info : Advanced Video Codec
Format profile : [email protected]
Format settings, CABAC : Yes
Format settings, ReFrames : 4 frames
Codec ID : V_MPEG4/ISO/AVC
Duration : 1 h 37 min
Bit rate : 2 499 kb/s
Width : 1 024 pixels
Height : 560 pixels
Display aspect ratio : 1.85:1
Frame rate mode : Constant
Frame rate : 23.976 (24000/1001) FPS
Color space : YUV
Chroma subsampling : 4:2:0
Bit depth : 8 bits
Scan type : Progressive
Bits/(Pixel*Frame) : 0.182
Stream size : 1.69 GiB (87%)
Writing library : core 157 r2935 545de2f
Encoding settings : cabac=1 / ref=3 / deblock=1:-1:-1 / analyse=0x3:0x113 / me=hex / subme=7 / psy=1 / psy_rd=1.00:0.15 / mixed_ref=1 / me_range=16 / chroma_me=1 / trellis=1 / 8x8dct=1 / cqm=0 / deadzone=21,11 / fast_pskip=1 / chroma_qp_offset=-3 / threads=12 / lookahead_threads=2 / sliced_threads=0 / nr=0 / decimate=1 / interlaced=0 / bluray_compat=0 / constrained_intra=0 / bframes=3 / b_pyramid=2 / b_adapt=1 / b_bias=0 / direct=1 / weightb=1 / open_gop=0 / weightp=2 / keyint=240 / keyint_min=23 / scenecut=40 / intra_refresh=0 / rc_lookahead=40 / rc=2pass / mbtree=1 / bitrate=2499 / ratetol=1.0 / qcomp=0.60 / qpmin=0 / qpmax=69 / qpstep=4 / cplxblur=20.0 / qblur=0.5 / ip_ratio=1.40 / aq=1:1.00
Default : Yes
Forced : No

Audio #1
ID : 2
Format : AC-3
Format/Info : Audio Coding 3
Mode extension : CM (complete main)
Format settings, Endianness : Big
Codec ID : A_AC3
Duration : 1 h 37 min
Bit rate mode : Constant
Bit rate : 192 kb/s
Channel(s) : 2 channels
Channel positions : Front: L R
Sampling rate : 48.0 kHz
Frame rate : 31.250 FPS (1536 spf)
Compression mode : Lossy
Stream size : 133 MiB (7%)
Title : GAMMA
Language : Ukrainian
Default : Yes
Forced : Yes

Audio #2
ID : 3
Format : AC-3
Format/Info : Audio Coding 3
Mode extension : CM (complete main)
Format settings, Endianness : Big
Codec ID : A_AC3
Duration : 1 h 37 min
Bit rate mode : Constant
Bit rate : 192 kb/s
Channel(s) : 2 channels
Channel positions : Front: L R
Sampling rate : 48.0 kHz
Frame rate : 31.250 FPS (1536 spf)
Compression mode : Lossy
Stream size : 133 MiB (7%)
Language : English
Default : No
Forced : No

Text
ID : 4
Format : UTF-8
Codec ID : S_TEXT/UTF8
Codec ID/Info : UTF-8 Plain Text
Duration : 1 h 30 min
Bit rate : 34 b/s
Count of elements : 706
Stream size : 22.9 KiB (0%)
Language : English
Default : Yes
Forced : No
Скріншоти














Джерело:
За українську доріжку дякую п. urij546724, Hulk1987, DareDevil96, Givi
За постер дякую пану Givi_мол.
Особиста оцінка: не дивився


Срібний реліз (на рейтинг впливає 50% завантаженого)
 Трекер:    Зареєстрований   

Завантажити / скачати фільм українською



відео для новачків



 Зареєстрований:   2019-12-05 22:27
 Розмір:   1.96 GB 
 Оцінка фільму:   9.5/10 (Голосів: 11)
   
Інші релізи
dreamer 
VIP


З нами з: 10.05.08
Востаннє: 22.02.20
Повідомлень: 581

2019-12-13 13:01  
чудова стрічка..9 з 10
Ваш часовий пояс: GMT + 2 Години

Нова тема   Відповісти