Губка Боб Квадратні Штани / SpongeBob SquarePants (Сезони 1,9,10,11) (1999-2018) 1080p Ukr/Eng

Нові коментарі

Нова тема   Відповісти
Автор Повідомлення
sergiyko.5 
VIP


З нами з: 25.02.16
Востаннє: 08.07.20
Повідомлень: 3241

2019-12-05 21:31  


Губка Боб Квадратні Штани / SpongeBob SquarePants (Сезони 1,9,10,11) (1999-2018) 1080p Ukr/Eng

Губка Боб Квадратні Штани / SpongeBob SquarePants (Сезони 1,9,10,11) (1999-2018) 1080p Ukr/Eng

Жанр: комедія, дитячий, сімейний
Країна: США
Кінокомпанія: United Plankton Pictures, Nickelodeon Animation Studios, Rough Draft Korea / Nickelodeon
Режисер: Стівен Хілленбург

Сюжет:
Губка Боб Квадратні Штани - герой американського однойменного мультсеріалу. Неухильно оптимістичний Губка Боб живе в підводному містечку «Бікіні Боттом», поряд з іншими цікавими істотами. Серед них - його найкращий друг, приваблива і страшенно чарівна морська зірка на ім'я Патрік, дратівливий вимогливий восьминіг Сквідвард та спортивна білка на ім'я Сенді, яка живе також під водою. Губка Боб працює кухарем у ресторані "Красті Крабс", власником якого є старий скнара Пан Крабс.




Тривалість: 1 серія: ~ 22 хв. (цілком серій: 20+20+11+26 з 83)
Якість:

Відео: кодек: розмір кадру: 1920 х 1080 бітрейт: ~ 4 050 кб/с
Аудіо 1: мова: українська переклад: професійний дубльований кодек: 2.0 бітрейт: 192 кб/с
Озвучення:
Аудіо 2: мова: англійська переклад: оригінал кодек: 2.0 бітрейт: 192 кб/с
Перелік серій

Сезон 1
01 Help Wanted. Reef Blowers. Tea at the Treedome
02 Bubblestand. Ripped Pants
03 Jellyfishing. Plankton!
04 Примхливі сусіди. Школа водіння - Naughty Nautical Neighbors. Boating School
05 Доставка піци. Рідний дім Ананас - Pizza Delivery. Home Sweet Pineapple
06 Морський супермен і причепа. Огірочки - Mermaid Man and Barnacle Boy. Pickles
07 Черговий у школі. Вечірка медуз - Hall Monitor. Jellyfish Jam
08 Ракета Сенді. Репучі чоботи - Sandy's Rocket. Squeaky Boots
09 Безштанько. День навпаки
10 Культурний шок. Веселощі
11 Мускул Боб Потужні Штани. Сквидвард - злостивий привид
12 Кавалер. Працівник місяця
13 Налякані штани. Я був підлітком Гері
14 SB-129. Любителі карате
15 Тиха година. Піна
16 День святого Валентина. Папірець
17 Арр. Рок боттом
18 Texas. Walking Small
19 Fools In April. Neptune's Spatula
20 Hooky. Mermaid Man and Barnacle Boy II

Сезон 9
01 Extreme Spots & Squirrel Record
02 Patrick-Man! & Gary's New Toy
03 License to Milkshake & Squid Baby
04 Little Yellow Book & Bumper to Bumper
05 Eek, an Urchin! & Squid Defense
06 Jailbreak! & Evil Spatula
07 It Came from Goo Lagoon
08 Safe Deposit Krabs & Plankton's Pet
09 Don't Look Now & Séance Shméance
10 Kenny the Cat & Yeti Krabs
11 SpongeBob You're Fired
12 Lost in Bikini Bottom & Tutor Sauce
13 Squid Plus One & The Executive Treatment
14 Company Picnic & Pull Up a Barrel
15. Sanctuary! & What's Eating Patrick?
16 Patrick! The Game & The Sewers of Bikini Bottom
17 SpongeBob LongPants & Larry's Gym

18 The Fish Bowl & Married to Money
19 Mall Girl Pearl & Two Thumbs Down
20 Sharks vs. Pods & CopyBob DittoPants
21 Sold! & Lame and Fortune
22 Goodbye, Krabby Patty?
23 Sandy's Nutmare & Bulletin Board
24 Food Con Castaways & Snail Mail

25 Pineapple Invasion & Salsa Imbecilicus
26 Mutiny on the Krusty & The Whole Tooth

Сезон 10
01 Круто-мізки. Супермен-штани
02 Нереальна нерухомість. Код жовтий
03 Пародійне божевілля. Хробаче новосілля
04 Хто проспав, той спізнився. Красті Крабс на виїзді
05 У Губки Боба. Планктону дають копняка
06 Страхування життя. Лусни, моя бульбашко
07 Планктон іде на пенсію. Проблема з тризубцем
08 Неймовірна міні-губка. Спорт?
09 Утеча. Відділ знахідок
10 Купон Патріка. Зникнути з картини
11 Пухнасті друзі. Не будіть Патріка

Сезон 11
01 Печерна Губка. Заклинач молюсків
02 Плямчик повертається. Медогляд
03 Покрути пляшку. У мене губка в супі
04 Зло не знає відпочинку. Лері-менеджер
05 Страшна легенда про Бікіні-Боттом
06 Не фотографувати. Застряг на даху
07 Епідемія крабових зомбі. Мовчителі учительки
08 Санітарне безумство. Полювання на кроликів
09 Сквідвард детектив. Шукай, поки не знайдеш
10 Няш-обіймаш. Погладь коника
11 Гері говорить. Клоунів не годувати
12 Водіть щасливо. Стареган Патрік
13 Міні-друзі. Бабусині казки
14 У світі каракуль. Переїзд Бульбаса
15 Пірнання вгору. Викрадачі пляшок
16 Нога. Чорнильний лимонад
17 Гірчичні шахти. Список покупок
18 Китовий патруль. Прибиральники Красті
19 Патнокіо. Шеф Боб
20 Планктонова параноя. Читацький квиток - Plankton Paranoia. Library Cards
21 Викличте копів. Корабель у пляшці - Call the Cops. Surf N' Turf
22 Недоумки на Місяці - Goons on the Moon
23 Живе телебачення. Вірус Карен - Appointment TV. Karens Virus
24 Де ж наш гриль? Нічна петті
25 Бульбашківка. Вечір для дівчат
26 Білка проти медузи. Ниточка
Про файл:
General
Unique ID : 171657779932589455017596925135936284460 (0x812415FAA7542AC42D16E97F35FFE72C)
Complete name : D:\Documents\Torrents\MULTSER\SpongeBob SquarePants 1080p \SpongeBob SquarePants S11 1080p \S11E18.Whale Watching-Krusty Kleaners.1080p..
Format :
Format version : Version 4
File size : 746 MiB
Duration : 23 min 29 s
Overall bit rate : 4 439 kb/s
Movie name : SpongeBob SquarePants S11 1080p by sergiyko
Encoded date : UTC 2019-12-05 18:17:32
Writing application : v40.0.0 ('Old Town Road + Pony') 64-bit
Writing library : libebml v1.3.9 + v1.5.2

Video
ID : 1
Format : AVC
Format/Info : Advanced Video Codec
Format profile : [email protected]
Format settings : CABAC / 4 Ref Frames
Format settings, CABAC : Yes
Format settings, Reference : 4 frames
Codec ID : V_MPEG4/ISO/AVC
Duration : 23 min 29 s
Bit rate : 4 053 kb/s
Width : 1 920 pixels
Height : 1 080 pixels
Display aspect ratio : 16:9
Frame rate mode : Constant
Frame rate : 23.976 (24000/1001) FPS
Color space : YUV
Chroma subsampling : 4:2:0
Bit depth : 8 bits
Scan type : Progressive
Bits/(Pixel*Frame) : 0.082
Stream size : 681 MiB (91%)
Writing library : core 148
Encoding settings : cabac=1 / ref=4 / deblock=1:0:0 / analyse=0x3:0x113 / me=umh / subme=10 / psy=1 / psy_rd=1.00:0.15 / mixed_ref=1 / me_range=32 / chroma_me=1 / trellis=2 / 8x8dct=1 / cqm=0 / deadzone=21,11 / fast_pskip=1 / chroma_qp_offset=-3 / threads=24 / lookahead_threads=6 / sliced_threads=0 / nr=0 / decimate=1 / interlaced=0 / bluray_compat=0 / constrained_intra=0 / bframes=3 / b_pyramid=0 / b_adapt=2 / b_bias=0 / direct=3 / weightb=1 / open_gop=0 / weightp=2 / keyint=48 / keyint_min=4 / scenecut=0 / intra_refresh=0 / rc_lookahead=48 / rc=crf / mbtree=1 / crf=19.0 / qcomp=0.75 / qpmin=10 / qpmax=51 / qpstep=4 / vbv_maxrate=5000 / vbv_bufsize=10000 / crf_max=0.0 / nal_hrd=none / filler=0 / ip_ratio=1.40 / aq=1:0.80
Language : English
Default : Yes
Forced : No

Audio #1
ID : 2
Format : AC-3
Format/Info : Audio Coding 3
Commercial name : Dolby Digital
Codec ID : A_AC3
Duration : 23 min 28 s
Bit rate mode : Constant
Bit rate : 192 kb/s
Channel(s) : 2 channels
Channel layout : L R
Sampling rate : 48.0 kHz
Frame rate : 31.250 FPS (1536 SPF)
Compression mode : Lossy
Delay relative to video : -41 ms
Stream size : 32.2 MiB (4%)
Title : DUB 2ch | ПлюсПлюс
Language : Ukrainian
Service kind : Complete Main
Default : Yes
Forced : Yes

Audio #2
ID : 3
Format : AC-3
Format/Info : Audio Coding 3
Commercial name : Dolby Digital
Codec ID : A_AC3
Duration : 23 min 28 s
Bit rate mode : Constant
Bit rate : 192 kb/s
Channel(s) : 2 channels
Channel layout : L R
Sampling rate : 48.0 kHz
Frame rate : 31.250 FPS (1536 SPF)
Compression mode : Lossy
Delay relative to video : -41 ms
Stream size : 32.2 MiB (4%)
Title : Original
Language : English
Service kind : Complete Main
Default : No
Forced : No
Скріншоти:



Запис/зведення: sergiyko


Срібний реліз (на рейтинг впливає 50% завантаженого)
 Трекер:    Зареєстрований   

Завантажити / скачати мультфільм українською



відео для новачків



 Зареєстрований:   2020-05-25 17:45
 Розмір:   65.39 GB 
 Оцінка мультсеріалу:   9.1/10 (Голосів: 10)
   
sergiyko.5 
VIP


З нами з: 25.02.16
Востаннє: 08.07.20
Повідомлень: 3241

2019-12-05 21:33  
З часом реліз буде оновлюватись до всіх повних сезонів.
56348gop 
Свій


З нами з: 03.12.16
Востаннє: 02.07.20
Повідомлень: 89

2019-12-05 22:46  
Дуже дякую, однак невелике питання. Чому немає озвучки QTV?
P.S. Якщо потрібні записи, зверніться до користувача xslim або до мене.

portalalien 
Забанено
Забанено


З нами з: 17.12.19
Востаннє: 17.12.19
Повідомлень: 11

2019-12-17 22:07  
Прикро що немає перекладу від Нового Каналу в інтернеті та торренті-толоці і він називався Боб Губко Прямокутні Штани який транслював 3 сезони і сам спільно транслювався з 2001 до 2009 року на Новому Каналі а потім з 2005 до 2009 року на каналі ICTV і його озвучили актор Валерій Легін та акторка Олена Бліннікова


спамер, видано igor911
sergiyko.5 
VIP


З нами з: 25.02.16
Востаннє: 08.07.20
Повідомлень: 3241

2020-05-13 11:07  
Торент оновлено. Додав серії до повних 1 та 11 сезонів.
crab1983 
Новенький


З нами з: 23.10.15
Востаннє: 29.05.20
Повідомлень: 20

2020-05-24 19:01  
Добрий день. Уже півдня чекаю - не скачується. Жодного відсотка...
sergiyko.5 
VIP


З нами з: 25.02.16
Востаннє: 08.07.20
Повідомлень: 3241

2020-05-25 17:47  
Додав 9 та 10 сезони. В 9 деякі серії відсутні, зроблю після повторної трансляції.
akon111 
Відео Гуртом - запис з ТБ
Відео Гуртом - запис з ТБ


З нами з: 28.08.09
Востаннє: 09.07.20
Повідомлень: 1332

2020-05-26 17:29  
маю з 9 сезону
201a 23a "Sandy's Nutmare"
201b 23b "Bulletin Board"

202a 24a "Food Con Castaways"
202b 24b "Snail Mail"

sergiyko.5 
VIP


З нами з: 25.02.16
Востаннє: 08.07.20
Повідомлень: 3241

2020-05-26 21:07  
akon111
Дякую. Зараз пишу трансляцію з ТЕТ та ПлюсПлюс. З часом додам всі серії.

Ваш часовий пояс: GMT + 2 Години

Нова тема   Відповісти