Роззява / Le corniaud (1965) Remux 1080p Ukr/Fre | Sub Eng

Нові коментарі

Нова тема   Відповісти
Автор Повідомлення
MakRA 
VIP


З нами з: 11.11.18
Востаннє: 01.10.20
Повідомлень: 1120

2019-12-05 08:43  
Роззява / Le corniaud (1965) Remux 1080p Ukr/Fre | Sub Eng


Альтернативні постери:










Жанр: комедія, кримінальний, пригодницький
Країна: Франція , Італія



Кінокомпанія: Les Films Corona, Explorer Film '58
Режисер: Жерар Урі [Gérard Oury]
Актори: Луї де Фюнес [Louis de Funès], Андре Бурвіль [Bourvil], Венантіно Венантіні [Venantino Venantini], Анрі Жене [Henri Génès], Ландо Буззанка [Lando Buzzanca], Жак Айзе [Jacques Eyser], Анрі Віруже [Henri Virlojeux], Жан Маєр [Jean Meyer]

Сюжет:
Антуан Марешаль, в якості компенсації за розбиту машину, одержує від багатого промисловця Леопольда Сарояна розкішний кабріолет, обладнаний телефоном і стереосистемою. У нестямі від щастя, він продовжує свою подорож до Італії.Проте безкоштовний сир буває тільки в мишоловці. Марешаль не підозрює, що його використовують гангстери на чолі з Сарояном. Дарований автомобіль напханий золотом і наркотиками, а на хвості у Марешаля тепер сидять дві банди контрабандистів - суперників...
Цікаве про фільм та зйомки:

-У фільмі крім розкішного американського та потужних англійських авто, на передньому плані з'являються інші досить скромні автомобілі європейських марок. Особливо контрастує автомобільний ринок Італії з дуже та той час масовими та дешевими маленькими Fiat 500
-Фільм продовжує тему розкішних американських авто у Франції, раніш започатковану фільмом «Прекрасна американка» (La Belle Américaine, 1961) з кабріолетом Oldsmobile 1959 року випуску в головній ролі. В цьому фільмі теж знявся Луї де Фюнес.
-Фабула фільму була використана у радянському фільмі «Діамантова рука».
-У свою чергу, золоті бампери нагадують про гирі з роману «Золоте теля». Тим більше, що у фільмі їх весь час пиляють.
-При повторному випуску в радянський кінопрокат в 1984 році фільм залучив аудиторію в кількості 21,1 млн. чоловік при 1007 копіях.
-Загальна відвідуваність в радянському кінопрокаті склала 52 млн. глядачів.


Тривалість: 01:50:30
Якість: Remux 1080p
Відео:
кодек:
розмір кадру: 1920 х 1080
бітрейт: 26 Mб/с

Аудіо # 1:
мова: українська
переклад: двоголосий закадровий
кодек: 2.0
бітрейт: 192 кб/с

Аудіо # 2:
мова: французька
переклад: оригінал
кодек: -HD MA 2.0
бітрейт: 1 641 кб/с

Аудіо # 3:
мова: французька
переклад: оригінал
кодек: 2.0
бітрейт: 192 кб/с

Субтитри: (Full)
мова: англійська
тип: програмні (м'які)
формат: *.srt

Збережено оригінальні розділи, як на Blu-ray.
Info
General
Unique ID : 202643849235127007219751722078788482036 (0x9873C925857FBF1A934847C0D3ED73F4)
Complete name : I:\+Фільмографії- Луї Де Фюнес [Louis de Funès]\Le corniaud (1965) Remux 1080p UkrFre Sub Eng [Hurtom].
Format :
Format version : Version 4
File size : 21.6 GiB
Duration : 1 h 50 min
Overall bit rate mode : Variable
Overall bit rate : 28.0 Mb/s
Movie name : Роззява / Le corniaud (1965) Remux 1080p Ukr/Fre | Sub Eng [Hurtom]
Encoded date : UTC 2019-12-05 04:55:05
Writing application : v25.0.0 ('Prog Noir') 64-bit
Writing library : libebml v1.3.6 + v1.4.9
Cover : Yes
Attachments : cover.jpg

Video
ID : 1
Format : AVC
Format/Info : Advanced Video Codec
Format profile : [email protected]
Format settings : CABAC / 4 Ref Frames
Format settings, CABAC : Yes
Format settings, Reference fra : 4 frames
Format settings, GOP : M=3, N=24
Codec ID : V_MPEG4/ISO/AVC
Duration : 1 h 50 min
Bit rate mode : Variable
Bit rate : 26.0 Mb/s
Maximum bit rate : 40.0 Mb/s
Width : 1 920 pixels
Height : 1 080 pixels
Display aspect ratio : 16:9
Frame rate mode : Constant
Frame rate : 24.000 FPS
Standard : NTSC
Color space : YUV
Chroma subsampling : 4:2:0
Bit depth : 8 bits
Scan type : Progressive
Bits/(Pixel*Frame) : 0.522
Stream size : 20.1 GiB (93%)
Title : Le corniaud (1965) Remux 1080p Ukr/Fre | Sub Eng [Hurtom]
Language : Ukrainian
Default : Yes
Forced : Yes
Color range : Limited
Color primaries : BT.709
Transfer characteristics : BT.709
Matrix coefficients : BT.709

Audio #1
ID : 2
Format : AC-3
Format/Info : Audio Coding 3
Commercial name : Dolby Digital
Codec ID : A_AC3
Duration : 1 h 50 min
Bit rate mode : Constant
Bit rate : 192 kb/s
Channel(s) : 2 channels
Channel layout : L R
Sampling rate : 48.0 kHz
Frame rate : 31.250 FPS (1536 SPF)
Bit depth : 16 bits
Compression mode : Lossy
Stream size : 152 MiB (1%)
Title : DVO [2+2] 2.0 192 kbps [Hurtom-igrik09]
Language : Ukrainian
Service kind : Complete Main
Default : Yes
Forced : Yes

Audio #2
ID : 3
Format : XLL
Format/Info : Digital Theater Systems
Commercial name : -HD Master Audio
Codec ID : A_DTS
Duration : 1 h 50 min
Bit rate mode : Variable
Bit rate : 1 641 kb/s
Channel(s) : 2 channels
Channel layout : L R
Sampling rate : 48.0 kHz
Frame rate : 93.750 FPS (512 SPF)
Bit depth : 24 bits
Compression mode : Lossless
Stream size : 1.27 GiB (6%)
Title : Original -HD MA 2.0
Language : French
Default : No
Forced : No

Audio #3
ID : 4
Format : AC-3
Format/Info : Audio Coding 3
Commercial name : Dolby Digital
Codec ID : A_AC3
Duration : 1 h 50 min
Bit rate mode : Constant
Bit rate : 192 kb/s
Channel(s) : 2 channels
Channel layout : L R
Sampling rate : 48.0 kHz
Frame rate : 31.250 FPS (1536 SPF)
Bit depth : 16 bits
Compression mode : Lossy
Stream size : 152 MiB (1%)
Title : Original 2.0
Language : French
Service kind : Complete Main
Default : No
Forced : No

Text
ID : 5
Format : UTF-8
Codec ID : S_TEXT/UTF8
Codec ID/Info : UTF-8 Plain Text
Duration : 1 h 49 min
Bit rate : 32 b/s
Count of elements : 1002
Stream size : 26.2 KiB (0%)
Title : Eng (Full)
Language : English
Default : No
Forced : No

Menu
00:00:00.000 : :00:00:00.000
00:07:49.167 : :00:07:49.167
00:18:47.292 : :00:18:47.292
00:26:17.500 : :00:26:17.500
00:36:37.458 : :00:36:37.458
00:44:49.625 : :00:44:49.625
00:56:10.625 : :00:56:10.625
01:03:40.625 : :01:03:40.625
01:11:54.708 : :01:11:54.708
01:21:25.292 : :01:21:25.292
01:28:11.292 : :01:28:11.292
01:39:24.208 : :01:39:24.208
Скріншоти
Джерело: &
Подяка за українську доріжку: п. igrik09 - зведення, п. sando7 - запис з ТБ
Особиста оцінка: 10 - без зайвих вагань рекомендую всім!


Золотий реліз (завантажене не впливає на рейтинг)
 Трекер:    Зареєстрований   

Завантажити / скачати фільм українською



відео для новачків



 Зареєстрований:   2019-12-05 08:48
 Розмір:   21.63 GB 
 Оцінка фільму:   10/10 (Голосів: 7)
   
Інші релізи
   Роззява / Le corniaud (1965) 720p Ukr/Fre igor911  3 / 0   6.67 GB   2013-08-27 23:56 
   Роззява / Le corniaud (1965) AVC Ukr/Fra igrik09  1 / 0   2.03 GB   2012-08-22 22:42 
   Роззява / Le corniaud (1965) Ukr/Fra igrik09  2 / 0   2.03 GB   2012-08-21 17:36 
star-space 
Частий відвідувач


З нами з: 22.12.17
Востаннє: 30.09.20
Повідомлень: 41

2019-12-05 19:40  
В 65-му мене ще не було. Але я знаю точно, що в ті роки всі фільми знімались в форматі кадру 3 на 4. Це ж як треба покромсати кадр, що навіть 16х9 виявилось забагато і як данина моді роблять вузеньку смужечку.
igor911 
Модератор відео


З нами з: 18.01.08
Востаннє: 01.10.20
Повідомлень: 15008

2019-12-05 22:55  
star-space написано:
Але я знаю точно, що в ті роки всі фільми знімались в форматі кадру 3 на 4

помилочка: https://www.imdb.com/title/tt0057967/technical?ref_=tt_ql_dt_6
Цитата:
Aspect Ratio 2.35 : 1

[email protected] 
VIP


З нами з: 25.03.17
Востаннє: 30.09.20
Повідомлень: 552

2020-04-30 00:36  
Чудовий фільм.
Ваш часовий пояс: GMT + 2 Години

Нова тема   Відповісти