Татуйований / Le Tatoue (1968) Remux 1080p Ukr/Fre | Sub Fre/Eng

Нові коментарі

Нова тема   Відповісти
Автор Повідомлення
MakRA 
VIP


З нами з: 10.11.18
Востаннє: 10.12.19
Повідомлень: 593

2019-12-05 01:56  
Татуйований / Le Tatoue (1968) Remux 1080p Ukr/Fre | Sub Fre/Eng


Альтернативні постери:


Жанр: комедія
Країна: Франція , Італія



Кінокомпанія: Ascot, Cineraid, Les Films Copernic, Les Films Corona
Режисер: Дені Де Ла Пательер [Denys de La Patellière]
Актори: Луї де Фюнес [Louis de Funès], Жан Габен [Jean Gabin], Поль Мерсі [Paul Mercey], Ів Барсак [Yves Barsacq], П'єр Торнад [Pierre Tornade], Жан-П'єр Даррас [Jean-Pierre Darras], Джо Уорфілд [Joe Warfield], Дональд Дж. фон Кертц [Donald J. von Kurtz], Лін Шардонне [Lyne Chardonnet], Ібрахим Сек [Ibrahim Seck]

Сюжет:
Жвавий та кмітливий торговець антикваріатом Феліс Мезеро випадково бачить на спині літньої людини, яка позує художнику, незвичайне татуювання. Досвідчене око пройдисвіта відразу впізнає руку майстра - і дійсно, цей малюнок колись зробив майору Леграну великий Модільяні. Феліс негайно пропонує Леграну продати шкіру зі спини за будь-які гроші, але той з обуренням відкидає абсурдну пропозицію. Але засліплений від жадібності антиквар готовий на все, лише б дістати в свої руки безцінний шедевр ...

Цікаве про фільм та зйомки:

-У цьому фільмі Жан Габен і Луї де Фюнес грали разом у четвертий і останній раз: після фільмів «Наполеон» (1954), «Через Париж» (1956) та «Джентльмен з Епсома» (1962).
-На знімальному майданчику між де Фюнесом та Габеном часто виникали суперечки. Актори не відчували один до одного особливої симпатії. Де Фюнес уесь час звертався до Габена тільки «пане Габен». В той час як Габен вважав, що де Фюнес є незаслужено популярнішим ніж він.
-Автомобіль, що належить графові Монтіньяк є старої французької марки «Chenard & Walcker» з 1925 року.
-Замок, який виявився «будиночком» графа Монтіньяка, розміщений у регіоні Аквітанія на південному заході Франції, у селі Сен-Венсан-ле-Палюель.
-На основі анкетування (3 211 778 даних) у Франції фільм зайняв восьме місце в прокаті 1968 року.


Тривалість: 01:30:06
Якість: Remux 1080p
Відео:
кодек:
розмір кадру: 1920 х 1080
бітрейт: 38,7 Mб/с

Аудіо # 1:
мова: українська
переклад: багатоголосий закадровий
кодек: 2.0
бітрейт: 192 кб/с

Аудіо # 2:
мова: французька
переклад: оригінал
кодек: -HD MA 2.0
бітрейт: 952 кб/с

Аудіо # 3:
мова: французька
переклад: оригінал
кодек: 2.0
бітрейт: 224 кб/с

Субтитри # 1: (Full)
мова: французька
тип: програмні (м'які)
формат: *.srt

Субтитри # 2: (Full)
мова: англійська
тип: пререндерні
формат: *.pgs

Збережено оригінальні розділи, як на Blu-ray.
Info
General
Unique ID : 8911173416878812151450210858390430552 (0x6B43AC54064128E13065E543DDEA358)
Complete name : I:\+Фільмографії- Луї Де Фюнес [Louis de Funès]\Le Tatoue (1968) Remux 1080p UkrFre Sub FreEng [Hurtom].
Format :
Format version : Version 4
File size : 25.2 GiB
Duration : 1 h 30 min
Overall bit rate mode : Variable
Overall bit rate : 40.1 Mb/s
Movie name : Татуйований / Le Tatoue (1968) Remux 1080p Ukr/Fre | Sub Fre/Eng [Hurtom]
Encoded date : UTC 2019-12-04 08:40:38
Writing application : v25.0.0 ('Prog Noir') 64-bit
Writing library : libebml v1.3.6 + v1.4.9
Cover : Yes
Attachments : cover.jpg

Video
ID : 1
Format : AVC
Format/Info : Advanced Video Codec
Format profile : [email protected]
Format settings : CABAC / 2 Ref Frames
Format settings, CABAC : Yes
Format settings, Reference fra : 2 frames
Codec ID : V_MPEG4/ISO/AVC
Duration : 1 h 30 min
Bit rate mode : Variable
Bit rate : 38.7 Mb/s
Width : 1 920 pixels
Height : 1 080 pixels
Display aspect ratio : 16:9
Frame rate mode : Constant
Frame rate : 24.000 FPS
Color space : YUV
Chroma subsampling : 4:2:0
Bit depth : 8 bits
Scan type : Progressive
Bits/(Pixel*Frame) : 0.779
Stream size : 24.4 GiB (97%)
Title : Le Tatoue (1968) Remux 1080p Ukr/Fre | Sub Fre/Eng [Hurtom]
Language : Ukrainian
Default : Yes
Forced : Yes

Audio #1
ID : 2
Format : AC-3
Format/Info : Audio Coding 3
Commercial name : Dolby Digital
Codec ID : A_AC3
Duration : 1 h 30 min
Bit rate mode : Constant
Bit rate : 192 kb/s
Channel(s) : 2 channels
Channel layout : L R
Sampling rate : 48.0 kHz
Frame rate : 31.250 FPS (1536 SPF)
Bit depth : 16 bits
Compression mode : Lossy
Stream size : 124 MiB (0%)
Title : MVO [КІНО] 2.0
Language : Ukrainian
Service kind : Complete Main
Default : Yes
Forced : Yes

Audio #2
ID : 3
Format : XLL
Format/Info : Digital Theater Systems
Commercial name : -HD Master Audio
Codec ID : A_DTS
Duration : 1 h 30 min
Bit rate mode : Variable
Bit rate : 952 kb/s
Channel(s) : 2 channels
Channel layout : L R
Sampling rate : 48.0 kHz
Frame rate : 93.750 FPS (512 SPF)
Bit depth : 16 bits
Compression mode : Lossless
Stream size : 614 MiB (2%)
Title : Original -HD MA 2.0
Language : French
Default : No
Forced : No

Audio #3
ID : 4
Format : AC-3
Format/Info : Audio Coding 3
Commercial name : Dolby Digital
Codec ID : A_AC3
Duration : 1 h 30 min
Bit rate mode : Constant
Bit rate : 224 kb/s
Channel(s) : 2 channels
Channel layout : L R
Sampling rate : 48.0 kHz
Frame rate : 31.250 FPS (1536 SPF)
Bit depth : 16 bits
Compression mode : Lossy
Stream size : 144 MiB (1%)
Title : Original 2.0
Language : French
Service kind : Complete Main
Default : No
Forced : No

Text #1
ID : 5
Format : UTF-8
Codec ID : S_TEXT/UTF8
Codec ID/Info : UTF-8 Plain Text
Duration : 1 h 26 min
Bit rate : 80 b/s
Count of elements : 1038
Stream size : 51.0 KiB (0%)
Title : Fre (Full)
Language : French
Default : No
Forced : No

Text #2
ID : 6
Format : PGS
Muxing mode : zlib
Codec ID : S_HDMV/PGS
Codec ID/Info : Picture based subtitle format used on BDs/HD-DVDs
Duration : 1 h 28 min
Bit rate : 22.5 kb/s
Count of elements : 1700
Stream size : 14.2 MiB (0%)
Title : Eng (Full)
Language : English
Default : No
Forced : No

Menu
00:00:00.000 : en:Chapter 1
00:06:46.208 : en:Chapter 2
00:16:24.625 : en:Chapter 3
00:20:34.000 : en:Chapter 4
00:28:13.290 : en:Chapter 5
00:36:10.458 : en:Chapter 6
00:41:36.083 : en:Chapter 7
00:51:12.750 : en:Chapter 8
01:01:02.625 : en:Chapter 9
01:08:55.875 : en:Chapter 10
01:14:48.500 : en:Chapter 11
01:24:26.625 : en:Chapter 12
Скріншоти
Джерело: &
Подяка за синхронізація звуку п. RB26DETT і запис з ТБ п. Romario_O, французські субтитри з DVD синхронізовував сам.
Особиста оцінка: 9 - давно не бачив настільки якісне кіно


Золотий реліз (завантажене не впливає на рейтинг)
 Трекер:    Зареєстрований   

Завантажити / скачати фільм українською



відео для новачків



 Зареєстрований:   2019-12-05 01:56
 Розмір:   25.25 GB 
 Оцінка фільму:   10/10 (Голосів: 8)
   
Інші релізи
   Татуйований / Le Tatoue (1968) AVC Ukr/Fra | Sub Eng staf777  3 / 0   2.15 GB   2018-10-23 21:24 
   Татуйований / Le Tatoue (1968) 1080p Ukr/Fra | Sub Eng staf777  2 / 0   8.19 GB   2017-02-14 09:55 
   Татуйований / Le Tatoue (1968) 720p Ukr/Fra chaoscor  2 / 0   2.93 GB   2013-03-24 11:38 
   Татуйований / Le Tatoue (1968) Ukr/Fra RB26DETT  2 / 0   1.46 GB   2010-04-11 16:50 
Ваш часовий пояс: GMT + 2 Години

Нова тема   Відповісти